img image001 image001 image001 image001 image001 image001 image001 image001 image001 image001 image001 image001 image001 image001 image001

Planets Sun Sun Sun
Статистика раздачи
Автор: Снежана | Размер: 8.35 ГБ | Добавлен: 25 июл 2013
Раздают: 756    Качают: 130
Скачать торрент
Скачать торрент
Описание торрента

СообщениеДобавлено: 25 июл 2013 

#77


Название: Однажды в Одессе (Жизнь и приключения Мишки Япончика)
Год выхода: 2011
Жанр: Драма, мелодрама
Режиссер: Сергей Гинзбург
В ролях: Евгений Ткачук, Елена Шамова, Валентин Гафт, Римма Маркова, Всеволод Шиловский, Владимир Долинский, Алексей Филимонов, Вадим Норштейн, Илья Лыков, Игорь Арташонов, Артем Ткаченко, Александр Лазарев (младший), Игорь Савочкин, Сергей Марин (II), Олег Школьник, Ирина Токарчук, Валерий Бассэль, Екатерина Копанова, Яна Поплавская, Андрей Ургант, Александр Ильин, Павел Прилучный, Михаил Богдасаров

О фильме: Мишка Японец (Мойша Винницкий, прототип Бени Крика из «Одесских рассказов» Бабеля) – не просто обычный налетчик с одесским колоритом. Стать королем воров, держать в страхе весь город, и одновременно быть народным любимцем мог только человек неординарный. Его популярность колоссальна - в нем видят «Робин Гуда», который радеет за народ, он утверждает свой «кодекс налетчика» - бедняков не грабить, не трогать врачей, юристов, артистов. Его налеты становятся все более артистичными и остроумными, это маленькие спектакли. Миша расчетлив, рационален, но у него широкая душа: он закатывает пиры для всей Молдаванки, снабжает деньгами безработных грузчиков, помогает деньгами и продуктами молодоженам, сиротам, бездомным и даже семьям жертв бандитских налетов. Он пробыл Королем всего три года – с 1917 по 1919-й. Это были три самые яркие года из жизни Япончика, переполненные событиями, на которые у других не хватило бы целой жизни...



Выпущено: Россия / Star Media
Продолжительность: 12 x ~ 00:51:00
Язык: Русский


Кодек: H264/High@L4.1
Качество видео: DVDRip-AVC
Формат: MP4
Видео: 1024x576, 16:9, 25 fps, ~1800 kbps avg, 0.122 bit/pixel
Аудио: AAC-LC, 48 kHz, 2 ch, 192 kbps avg







Общее
Полное имя : 01_Мишка_Япончик.2011.DVDRip(AVC).mp4
Формат : MPEG-4
Профиль формата : Base Media
Идентификатор кодека : isom
Размер файла : 714 Мбайт
Продолжительность : 50 м.
Общий поток : 1967 Кбит/сек
Программа кодирования : Lavf53.6.0

Видео
Идентификатор : 1
Формат : AVC
Формат/Информация : Advanced Video Codec
Профиль формата : High@L4.1
Параметр CABAC формата : Да
Параметр ReFrames формата : 12 кадров
Идентификатор кодека : avc1
Идентификатор кодека/Информация : Advanced Video Coding
Продолжительность : 50 м.
Битрейт : 1800 Кбит/сек
Ширина : 1024 пикселя
Высота : 576 пикселей
Соотношение сторон : 16:9
Режим частоты кадров : Постоянный
Частота кадров : 25,000 кадров/сек
Цветовое пространство : YUV
Субдискретизация насыщенности : 4:2:0
Битовая глубина : 8 бит
Тип развёртки : Прогрессивная
Бит/(Пиксели*Кадры) : 0.122
Размер потока : 653 Мбайт (91%)
Библиотека кодирования : x264 core 119 r2106 07efeb4
Настройки программы : cabac=1 / ref=12 / deblock=1:0:0 / analyse=0x3:0x133 / me=esa / subme=9 / psy=1 / psy_rd=1.00:0.00 / mixed_ref=1 / me_range=32 / chroma_me=1 / trellis=2 / 8x8dct=1 / cqm=0 / deadzone=21,11 / fast_pskip=0 / chroma_qp_offset=-2 / threads=18 / sliced_threads=0 / nr=0 / decimate=1 / interlaced=0 / bluray_compat=0 / constrained_intra=0 / bframes=6 / b_pyramid=2 / b_adapt=2 / b_bias=0 / direct=3 / weightb=1 / open_gop=0 / weightp=2 / keyint=250 / keyint_min=25 / scenecut=40 / intra_refresh=0 / rc_lookahead=50 / rc=2pass / mbtree=1 / bitrate=1800 / ratetol=1.0 / qcomp=0.80 / qpmin=0 / qpmax=69 / qpstep=4 / cplxblur=20.0 / qblur=0.5 / ip_ratio=1.40 / aq=1:1.00

Аудио
Идентификатор : 2
Формат : AAC
Формат/Информация : Advanced Audio Codec
Профиль формата : LC
Идентификатор кодека : 40
Продолжительность : 50 м.
Вид битрейта : Постоянный
Битрейт : 163 Кбит/сек
Каналы : 2 канала
Расположение каналов : Front: L R
Частота : 48,0 КГц
Метод сжатия : С потерями
Размер потока : 59,1 Мбайт (8%)



   Похожие торренты   Торрент   Размер 
В этой теме нет новых непрочитанных сообщений. Однажды в Одессе / Жизнь и приключения Мишки Япончика [01-12 из 12] (2011) DVDRip от RiperAM

1144 | 125

7.04 ГБ

В этой теме нет новых непрочитанных сообщений. Однажды в Одессе / Жизнь и приключения Мишки Япончика [01-12 из 12] (2011) DVDRip | КПК от Generalfilm

229 | 41

2.38 ГБ

В этой теме нет новых непрочитанных сообщений. Однажды в Одессе / Жизнь и приключения Мишки Япончика [01-12 из 12] (2011) DVDRip от MediaClub | КПК

640 | 98

3.6 ГБ

В этой теме нет новых непрочитанных сообщений. Однажды в Одессе / Жизнь и приключения Мишки Япончика [01-12 из 12] (2011) DVDRip | КПК от Generalfilm

117 | 32

2.06 ГБ

В этой теме нет новых непрочитанных сообщений. OST - Однажды в Одессе / Жизнь и приключения Мишки Япончика (2011) MP3

140 | 4

80.33 МБ

В этой теме нет новых непрочитанных сообщений. Однажды в Одессе / Жизнь и приключения Мишки Япончика [01-12 из 12] (2011) WEB-DLRip-AVC

344 | 48

7.83 ГБ

В этой теме нет новых непрочитанных сообщений. Однажды в Одессе / Жизнь и приключения Мишки Япончика [01-12 из 12] (2011) WEB-DL (720p)

603 | 103

17.51 ГБ




Вы не можете начинать темы
Вы не можете отвечать на сообщения
Вы не можете редактировать свои сообщения
Вы не можете удалять свои сообщения
Вы не можете добавлять вложения

Перейти:  
Для Мосгорсуда, Роскомнадзора и рекламодателей: mosgorsud-torrent[собачка]yandex.ru
 Вход
ppkBB3cker v.2 © 2008-2014 @ PPK
[ Time : 0.200s | 19 Queries | GZIP : Off ]
CGP output time : 0.080s | 5 Queries | GZIP : Off

Торрент трекер RUTOR.IN, Не можете зайти на rutor.org? Какой новый адрес рутор? Какое зеркало рутор? Не работает rutor.org и зеркала? Тогда наш торрент специально для вас. Rutor.in неофициальное зеркало rutor. В случае если у Вас заблокирован rutor или вдруг Вы не можете на него зайти, то Вы без труда сможете скачать бесплатно и без рекламы последние новинки кино, игр, сериалов и прочего у нас, на Rutor.in. Не нужно использовать прокси, чтобы зайти на рутор, достаточно воспользоваться нашим ресурсом. Все новые фильмы, игры, сериалы, книги и музыка за 2013 и 2014 годы через торрент бесплатно. Скачивайте фильмы в хорошем качестве, игры для пк, xbox, playstation без регистрации. У нас вы найдете новые Зарубежные сериалы и Русские сериалы 2013, 2014, 2015 годов. Оставайтесь с нами, качайте любимые фильмы, игры, сериалы, книги и музыку.