img image001 image001 image001 image001 image001 image001 image001 image001 image001 image001 image001 image001 image001 image001 image001

Planets Sun Sun Sun
Статистика раздачи
Автор: Снежана | Размер: 308.32 МБ | Добавлен: 25 июл 2013
Раздают: 3    Качают: 2
Скачать торрент
Скачать торрент
Описание торрента

СообщениеДобавлено: 25 июл 2013 

#77

Название на русском: Ходячие мертвецы: Вэбизоды
Название в оригинале: The Walking Dead: Webisodes

Страна: США
Жанр: Ужасы
Год выпуска: 2010
Продолжительность: 00:19:41
Перевод: Любительский двухголосый
Субтитры: Нет

Режиссёр: Грег Никотеро / Greg Nicotero
В ролях: Информация отсутствует

Описание фильма:
Эта короткая история повествует о последних часах жизни матери пожертвовавшей собой ради спасения детей, когда злоcчастный вирус превратил людей в зомби… В последствии была застрелена полицейским Рик Граймс / Rick Grimes (Эндрю Линкольн / Andrew Lincoln)



Качество: WEB-DL (720p)
Формат: MKV
Видео кодек: H264
Аудио кодек: AC3
Видео: MPEG-4 AVC, 2550 Кбит/с, 1280x720 16:9
Аудио: AC3, 48000Hz stereo 2 ch, 192 Кбит/с

















Format : Matroska
Format version : Version 2
File size : 308 MiB
Duration : 19mn 40s
Overall bit rate : 2 190 Kbps
Encoded date : UTC 2011-11-16 20:01:48
Writing application : mkvmerge v4.8.0 ('I Got The...') сборка от May 24 2011 03:12:58
Writing library : libebml v1.2.0 + libmatroska v1.1.0

Video
ID : 1
Format : AVC
Format/Info : Advanced Video Codec
Format profile : High@L3.1
Format settings, CABAC : Yes
Format settings, ReFrames : 1 frame
Muxing mode : Header stripping
Codec ID : V_MPEG4/ISO/AVC
Duration : 19mn 40s
Bit rate : 1 955 Kbps
Width : 1 280 pixels
Height : 720 pixels
Display aspect ratio : 16:9
Frame rate mode : Variable
Frame rate : 30.303 fps
Color space : YUV
Chroma subsampling : 4:2:0
Bit depth : 8 bits
Scan type : Progressive
Bits/(Pixel*Frame) : 0.070
Stream size : 275 MiB (89%)
Title : The.Walking.Dead.Webisode.01

Audio
ID : 2
Format : AC-3
Format/Info : Audio Coding 3
Mode extension : CM (complete main)
Muxing mode : Header stripping
Codec ID : A_AC3
Duration : 19mn 40s
Bit rate mode : Constant
Bit rate : 192 Kbps
Channel(s) : 2 channels
Channel positions : Front: L R
Sampling rate : 48.0 KHz
Bit depth : 16 bits
Compression mode : Lossy
Stream size : 27.0 MiB (9%)
Title : Jetvis Studio
Language : Russian





   Похожие торренты   Торрент   Размер 
В этой теме нет новых непрочитанных сообщений. Ходячие мертвецы: Вэбизоды / The Walking Dead: Webisodes (2010) WEB-DL

24 | 3

299.41 МБ

В этой теме нет новых непрочитанных сообщений. Ходячие Мертвецы / The Walking Dead (Webisodes) Season 3 [03x части 01-03] (2013) WEB-DLRip-AVC 1080p

20 | 2

724.65 МБ

В этой теме нет новых непрочитанных сообщений. Ходячие Мертвецы / The Walking Dead [S01] (2010) WEB-DL 720p от NovaFilm

80 | 15

8.98 ГБ

В этой теме нет новых непрочитанных сообщений. Ходячие мертвецы / The Walking Dead [S01] (2010) BDRip 720p от HQ-ViDEO

19 | 12

21.29 ГБ

В этой теме нет новых непрочитанных сообщений. Ходячие мертвецы / The Walking Dead [01x01-06 из 06] (2010) WEB-DLRip 720p

7 | 9

10.85 ГБ

В этой теме нет новых непрочитанных сообщений. Ходячие мертвецы / The Walking Dead [S01-05] (2010-2015) WEB-DLRip 720p | LostFilm

207 | 299

97.37 ГБ

В этой теме нет новых непрочитанных сообщений. Ходячие мертвецы / The Walking Dead [S01] (2010-2011) BDRip 720p от Filmrus

6 | 7

22.55 ГБ




Вы не можете начинать темы
Вы не можете отвечать на сообщения
Вы не можете редактировать свои сообщения
Вы не можете удалять свои сообщения
Вы не можете добавлять вложения

Перейти:  
Для Мосгорсуда, Роскомнадзора и рекламодателей: mosgorsud-torrent[собачка]yandex.ru
 Вход
ppkBB3cker v.2 © 2008-2014 @ PPK
[ Time : 0.082s | 15 Queries | GZIP : Off ]

cron