img image001 image001 image001 image001 image001 image001 image001 image001 image001 image001 image001 image001 image001 image001 image001

Planets Sun Sun Sun
Статистика раздачи
Автор: Снежана | Размер: 8.17 ГБ | Добавлен: 25 июл 2013
Раздают: 429    Качают: 66
Скачать торрент
Скачать торрент
Описание торрента

СообщениеДобавлено: 25 июл 2013 



Информация о фильме
Название: Охотники за бриллиантами
Год выхода: 2011
Жанр: Детектив
Режиссер: Александр Котт
В ролях: Алексей Серебряков,Евгений Миронов, Петр Федоров,Александр Новин, Мария Аронова,Владимир Ильин, Авангард Леонтьев, Виталий Кищенко, Антон Гришанин, Виталий Гусев

О фильме:
В ноябре 1980-го происходит ограбление вдовы А. Толстого. Из квартиры выносят антиквариат, но, главное, пропадает необыкновенной красоты брошь Королевская Лилия, изготовленная для Людовика XV. Поскольку вдова Толстого имеет обширные связи и в СССР и за рубежом, дело получает широкий резонанс, к расследованию привлекаются самые серьезные силы МВД, за ходом следствия следит лично министр МВД Щелоков.

Следствие выходит на участницу ограбления — жену французского дипломата, которая собирается покинуть страну. Задержан и её сообщник, известный одесский вор по кличке Бес. Однако бриллиантов при них не обнаружено. Следователь Шахов раскручивает цепочку, надеясь выйти на заказчика — следы уводят всё выше и выше по служебной лестнице, и расследование становится всё опаснее и опаснее для Шахова.

Страна: Россия
Продолжительность: ~0:53
Перевод: Оригинал

MediaInfo
File size : 1.02 GiB
Duration : 53mn 37s
Overall bit rate : 2 725 Kbps
Encoded date : UTC 2012-02-06 10:54:03
Writing application : mkvmerge v5.0.1 ('Es ist Sommer') built on Oct 9 2011 11:55:43
Writing library : libebml v1.2.2 + libmatroska v1.3.0

Video
ID : 1
Format : AVC
Format/Info : Advanced Video Codec
Format profile : High@L3.0
Format settings, CABAC : Yes
Format settings, ReFrames : 4 frames
Muxing mode : Header stripping
Codec ID : V_MPEG4/ISO/AVC
Duration : 53mn 37s
Bit rate : 2 500 Kbps
Width : 720 pixels
Height : 576 pixels
Display aspect ratio : 16:9
Frame rate : 25.000 fps
Standard : PAL
Color space : YUV
Chroma subsampling : 4:2:0
Bit depth : 8 bits
Scan type : Progressive
Bits/(Pixel*Frame) : 0.241
Stream size : 938 MiB (90%)
Writing library : x264 core 120 r2146 bcd41db
Encoding settings : cabac=1 / ref=3 / deblock=1:0:0 / analyse=0x3:0x111 / me=hex / subme=7 / psy=1 / psy_rd=1.00:0.00 / mixed_ref=1 / me_range=16 / chroma_me=1 / trellis=1 / 8x8dct=1 / cqm=0 / deadzone=21,11 / fast_pskip=1 / chroma_qp_offset=-2 / threads=12 / sliced_threads=0 / nr=0 / decimate=1 / interlaced=0 / bluray_compat=0 / constrained_intra=0 / bframes=3 / b_pyramid=2 / b_adapt=1 / b_bias=0 / direct=1 / weightb=1 / open_gop=0 / weightp=2 / keyint=250 / keyint_min=25 / scenecut=40 / intra_refresh=0 / rc_lookahead=40 / rc=2pass / mbtree=1 / bitrate=2500 / ratetol=1.0 / qcomp=0.60 / qpmin=0 / qpmax=69 / qpstep=4 / cplxblur=20.0 / qblur=0.5 / ip_ratio=1.40 / aq=1:1.00
Language : English
Default : Yes
Forced : No

Audio
ID : 2
Format : AC-3
Format/Info : Audio Coding 3
Mode extension : CM (complete main)
Muxing mode : Header stripping
Codec ID : A_AC3
Duration : 53mn 37s
Bit rate mode : Constant
Bit rate : 224 Kbps
Channel(s) : 2 channels
Channel positions : Front: L R
Sampling rate : 48.0 KHz
Bit depth : 16 bits
Compression mode : Lossy
Stream size : 85.9 MiB (8%)
Language : Russian
Default : Yes
Forced : No



   Похожие торренты   Торрент   Размер 
В этой теме нет новых непрочитанных сообщений. Охотники за бриллиантами [01-08] (2011) DVDRip

884 | 75

5.45 ГБ

В этой теме нет новых непрочитанных сообщений. Охотники за бриллиантами [01-08 из 08] (2011) SATRip | КПК

99 | 20

1.86 ГБ

В этой теме нет новых непрочитанных сообщений. Охотники за бриллиантами [01-08 из 08] (2011) WEB-DL 1080p

147 | 39

12.56 ГБ

В этой теме нет новых непрочитанных сообщений. Охотники за бриллиантами [01-08 из 08] (2011) WEB-DLRip-AVC

167 | 36

5.49 ГБ

В этой теме нет новых непрочитанных сообщений. Охотники за бриллиантами [01-08 из 08] (2011) WEB-DLRip

110 | 22

6 ГБ

В этой теме нет новых непрочитанных сообщений. Охотники за бриллиантами [01-08 из 08] (2011) 2xDVD9

2 | 9

14.21 ГБ

В этой теме нет новых непрочитанных сообщений. Охотники / The Hunters (2011) DVDRip

6 | 1

723.94 МБ




Вы не можете начинать темы
Вы не можете отвечать на сообщения
Вы не можете редактировать свои сообщения
Вы не можете удалять свои сообщения
Вы не можете добавлять вложения

Перейти:  
Для Мосгорсуда, Роскомнадзора и рекламодателей: mosgorsud-torrent[собачка]yandex.ru
 Вход
ppkBB3cker v.2 © 2008-2014 @ PPK
[ Time : 0.172s | 13 Queries | GZIP : Off ]
CGP output time : 0.093s | 5 Queries | GZIP : Off

Торрент трекер RUTOR.IN, Не можете зайти на rutor.org? Какой новый адрес рутор? Какое зеркало рутор? Не работает rutor.org и зеркала? Тогда наш торрент специально для вас. Rutor.in неофициальное зеркало rutor. В случае если у Вас заблокирован rutor или вдруг Вы не можете на него зайти, то Вы без труда сможете скачать бесплатно и без рекламы последние новинки кино, игр, сериалов и прочего у нас, на Rutor.in. Не нужно использовать прокси, чтобы зайти на рутор, достаточно воспользоваться нашим ресурсом. Все новые фильмы, игры, сериалы, книги и музыка за 2013 и 2014 годы через торрент бесплатно. Скачивайте фильмы в хорошем качестве, игры для пк, xbox, playstation без регистрации. У нас вы найдете новые Зарубежные сериалы и Русские сериалы 2013, 2014, 2015 годов. Оставайтесь с нами, качайте любимые фильмы, игры, сериалы, книги и музыку.