img image001 image001 image001 image001 image001 image001 image001 image001 image001 image001 image001 image001 image001 image001 image001

Planets Sun Sun Sun
Статистика раздачи
Автор: Снежана | Размер: 2.61 ГБ | Добавлен: 25 июл 2013
Раздают: 47    Качают: 9
Скачать торрент
Скачать торрент
Описание торрента

СообщениеДобавлено: 25 июл 2013 

#77


Название: Доставить любой ценой
Год выхода: 2011
Жанр: Военный
Режиссер: Александр Березань
В ролях: Евгения Хиривская, Дмитрий Орлов, Александр Кобзарь, Виктория Малекторович, Сергей Калантай, Дирк Мартенс, Евгений Ермаков, Юрий Шульган, Михаил Жонин, Владимир Левицкий...

О фильме: В октябре 1941 советские люди еще верили, что война с немцами не продлится дольше нескольких месяцев. Тем не менее по приказу руководства в тыл перевозят не только заводы, но и исторические ценности. В небольшом городке эвакуируют музей, уютно разместившийся в старинном монастыре. Молодая девушка Ася, ее отец-профессор, да его заместитель Феденька — вот и вся охрана, на которую возложена миссия спасти для народа культурное достояние. Среди прочих экспонатов есть один особенный — он должен стать основой для выставки под патронатом самого товарища Сталина, но и у немцев на эту вещицу есть планы. Путь неблизкий, а дорога полна опасностей. Случается так, что вместо родных людей сопровождать Асеньку станет совсем чужой человек, судьба которого полна неприятных загадок, а повадки и привычки заставляют скорее опасаться его, чем доверять… но одной ей не выжить.



Выпущено: Россия-Украина, Film.UA
Продолжительность: 02:50:40
Язык: Русский


Кодек: H264/High@L4.1
Качество видео: DVDRip-AVC
Формат: MKV
Видео: 720x576&1024x576 16:9, 25 fps, ~2000 kbps avg, 0.193 bit/pixel
Аудио: AC 3, 48 kHz, 2 ch, 192 kbps avg









Уникальный идентификатор : 248199889365725802721588975128278630965 (0xBAB98F5669AEC4DFB870AE2E157A8235)
Формат : Matroska
Версия формата : Version 2
Размер файла : 2,61 Гбайт
Продолжительность : 2 ч. 50 м.
Общий поток : 2193 Кбит/сек
Дата кодирования : UTC 2012-01-29 12:26:05
Программа кодирования : mkvmerge v5.2.0 ('I can't explain') built on Dec 18 2011 18:12:03
Библиотека кодирования : libebml v1.2.3 + libmatroska v1.3.0

Видео
Идентификатор : 1
Формат : AVC
Формат/Информация : Advanced Video Codec
Профиль формата : High@L4.1
Параметр CABAC формата : Да
Параметр ReFrames формата : 16 кадров
Идентификатор кодека : V_MPEG4/ISO/AVC
Продолжительность : 2 ч. 50 м.
Битрейт : 2000 Кбит/сек
Ширина : 720 пикселей
Высота : 576 пикселей
Соотношение сторон : 16:9
Частота кадров : 25,000 кадров/сек
Стандарт вещания : PAL
Цветовое пространство : YUV
Субдискретизация насыщенности : 4:2:0
Битовая глубина : 8 бит
Тип развёртки : Прогрессивная
Бит/(Пиксели*Кадры) : 0.193
Размер потока : 2,33 Гбайт (89%)
Библиотека кодирования : x264 core 120 r2146 bcd41db
Настройки программы : cabac=1 / ref=16 / deblock=1:-1:-1 / analyse=0x3:0x133 / me=tesa / subme=11 / psy=1 / psy_rd=1.00:0.15 / mixed_ref=1 / me_range=32 / chroma_me=1 / trellis=2 / 8x8dct=1 / cqm=0 / deadzone=21,11 / fast_pskip=0 / chroma_qp_offset=-3 / threads=9 / sliced_threads=0 / nr=0 / decimate=0 / interlaced=0 / bluray_compat=0 / constrained_intra=0 / bframes=16 / b_pyramid=2 / b_adapt=2 / b_bias=0 / direct=3 / weightb=1 / open_gop=0 / weightp=2 / keyint=250 / keyint_min=25 / scenecut=40 / intra_refresh=0 / rc_lookahead=60 / rc=2pass / mbtree=1 / bitrate=2000 / ratetol=1.0 / qcomp=0.60 / qpmin=0 / qpmax=69 / qpstep=4 / cplxblur=20.0 / qblur=0.5 / vbv_maxrate=62500 / vbv_bufsize=78125 / nal_hrd=none / ip_ratio=1.40 / aq=2:1.00

Аудио
Идентификатор : 2
Формат : AC-3
Формат/Информация : Audio Coding 3
Расширение режима : CM (complete main)
Идентификатор кодека : A_AC3
Продолжительность : 2 ч. 50 м.
Вид битрейта : Постоянный
Битрейт : 192 Кбит/сек
Каналы : 2 канала
Расположение каналов : Front: L R
Частота : 48,0 КГц
Битовая глубина : 16 бит
Метод сжатия : С потерями
Задержка видео : 193 мс.
Размер потока : 234 Мбайт (9%)

Меню
00:00:00.000 : en:1 series
00:43:31.130 : en:2 series
01:25:38.050 : en:3 series
02:08:14.130 : en:4 series



   Похожие торренты   Торрент   Размер 
В этой теме нет новых непрочитанных сообщений. Доставить любой ценой [01-04 из 04] (2011) DVDRip Jonni3009

20 | 3

1.96 ГБ

В этой теме нет новых непрочитанных сообщений. Доставить любой ценой [01-04 из 04] (2011) DVDRip | КПК от Kino@rena

9 | 1

577.33 МБ

В этой теме нет новых непрочитанных сообщений. Доставить любой ценой [01-04 из 04] (2011) SATRip

2 | 6

1.99 ГБ

В этой теме нет новых непрочитанных сообщений. Доставить любой ценой (2011) BDRip-AVC

34 | 6

2.1 ГБ

В этой теме нет новых непрочитанных сообщений. Доставить любой ценой [01-04 из 4] (2011) DVD5 | сжатый

0 | 3

4.36 ГБ

В этой теме нет новых непрочитанных сообщений. Любовный массаж: Как доставить удовольствие женщине (2005) DVDRip

37 | 5

1.09 ГБ

В этой теме нет новых непрочитанных сообщений. Discovery: Выжить любой ценой / Ultimate Survival / Man vs. Wild [S01-07] (2006-2011) DVDRip, HDTVRip | P1

443 | 148

36.4 ГБ




Вы не можете начинать темы
Вы не можете отвечать на сообщения
Вы не можете редактировать свои сообщения
Вы не можете удалять свои сообщения
Вы не можете добавлять вложения

Перейти:  
Для Мосгорсуда, Роскомнадзора и рекламодателей: mosgorsud-torrent[собачка]yandex.ru
 Вход
ppkBB3cker v.2 © 2008-2014 @ PPK
[ Time : 0.030s | 14 Queries | GZIP : Off ]

Торрент трекер RUTOR.IN, Не можете зайти на rutor.org? Какой новый адрес рутор? Какое зеркало рутор? Не работает rutor.org и зеркала? Тогда наш торрент специально для вас. Rutor.in неофициальное зеркало rutor. В случае если у Вас заблокирован rutor или вдруг Вы не можете на него зайти, то Вы без труда сможете скачать бесплатно и без рекламы последние новинки кино, игр, сериалов и прочего у нас, на Rutor.in. Не нужно использовать прокси, чтобы зайти на рутор, достаточно воспользоваться нашим ресурсом. Все новые фильмы, игры, сериалы, книги и музыка за 2013 и 2014 годы через торрент бесплатно. Скачивайте фильмы в хорошем качестве, игры для пк, xbox, playstation без регистрации. У нас вы найдете новые Зарубежные сериалы и Русские сериалы 2013, 2014, 2015 годов. Оставайтесь с нами, качайте любимые фильмы, игры, сериалы, книги и музыку.