img image001 image001 image001 image001 image001 image001 image001 image001 image001 image001 image001 image001 image001 image001 image001

Planets Sun Sun Sun
Статистика раздачи
Автор: Снежана | Размер: 4.36 ГБ | Добавлен: 25 июл 2013, 06:45
Раздают: 43    Качают: 12
Скачать торрент
Скачать торрент
Описание торрента

СообщениеДобавлено: 25 июл 2013, 06:45 

#77

Информация о фильме
Название: Миллионер поневоле
Год выхода: 2007
Жанр: мелодрама, комедия
Режиссер: Фархот Абдуллаев
В ролях: Валерий Золотухин, Сергей Загребнев, Лариса Гузеева, Дмитрий Поднозов, Кристина Бабушкина, Ирина Линдт, Валерий Баринов

О фильме:
Григорий Курехин — мелкий предприниматель, занимающийся производством пластиковой посуды, умер в больнице на радость конкурентам. Единственный сын и наследник покойного — двадцатилетний, достаточно инфантильный Артём — категорически отказался включиться в незавершенную игру папы. Артём не желает продолжать отца ни в чём.

Но Курехин-старший не спешит на тот свет: в результате переселения души он загадочным образом трансформируется в Гарсиа — случайного приятеля своего сына, бесшабашного гитариста из электрички. И тут начинается настоящая Жизнь! Только в новом качестве Курехин находит общий язык с сыном! У самого же Гарсиа вдруг складываются весьма забавные отношения со своей «совестью»: они постоянно ругаются, Гарсиа начинает изобретать способы, чтобы в нужный момент отвязаться от «непрошенного гостя».

Страна: Россия
Студия: Ментор Синема
Продолжительность: 8 серий ~ 360 мин.
Перевод: Не требуется

Файл
Кодек: XviD / AC3
Качество: DVDRip
Видео: XviD, 656x368 (16:9), 25 fps, ~1580 kbps, 0.262 bit/pixel
Звук: AC3, 48 kHz, 2/0 (L,R) ch, 192 kbps

Общее
Полное имя : Millioner.ponevole.2007.DVDRipMillioner.ponevole.DVDRip.1seria.avi
Формат : AVI
Формат/Информация : Audio Video Interleave
Размер файла : 541 Мбайт
Продолжительность : 42 м.
Общий поток : 1782 Кбит/сек
Программа кодирования : VirtualDubMod 1.5.10.3 | www.virtualdub-fr.org || (build 2550/release)
Библиотека кодирования : VirtualDubMod build 2550/release

Видео
Идентификатор : 0
Формат : MPEG-4 Visual
Профиль формата : Advanced Simple@L5
Параметр BVOP формата : 1
Параметр QPel формата : Нет
Параметр GMC формата : Без точки перехода
Параметр матрицы формата : Выборочная
Идентификатор кодека : XVID
Идентификатор кодека/Подсказка : XviD
Продолжительность : 42 м.
Битрейт : 1580 Кбит/сек
Ширина : 656 пикселей
Высота : 368 пикселей
Соотношение сторон : 16:9
Частота кадров : 25,000 кадров/сек
Цветовое пространство : YUV
Субдискретизация насыщенности : 4:2:0
Битовая глубина : 8 бит
Тип развёртки : Прогрессивная
Метод сжатия : С потерями
Бит/(Пиксели*Кадры) : 0.262
Размер потока : 479 Мбайт (89%)
Библиотека кодирования : XviD 1.2.1 (UTC 2008-12-04)

Аудио
Идентификатор : 1
Формат : AC-3
Формат/Информация : Audio Coding 3
Расширение режима : CM (complete main)
Идентификатор кодека : 2000
Продолжительность : 42 м.
Вид битрейта : Постоянный
Битрейт : 192 Кбит/сек
Каналы : 2 канала
Расположение каналов : Front: L R
Частота : 48,0 КГц
Битовая глубина : 16 бит
Метод сжатия : С потерями
Размер потока : 58,3 Мбайт (11%)
Выравнивание : Разделение по промежуткам
Продолжительность промежутка : 40 мс. (1,00 видеокадр)
Время предзагрузки промежутка : 500 мс.




   Похожие торренты   Торрент   Размер 
В этой теме нет новых непрочитанных сообщений. Миллионер поневоле [01-08 из 08] (2007) DVD9 от Youtracker

2 | 2

6.77 ГБ

В этой теме нет новых непрочитанных сообщений. Миллионер поневоле [01-08 из 08] (2007) 2хDVD5 от Youtracker

0 | 2

6.77 ГБ

В этой теме нет новых непрочитанных сообщений. Миллионер поневоле / Mr. Deeds (2002) DVDRip

20 | 4

700 МБ

В этой теме нет новых непрочитанных сообщений. Миллионер поневоле / Mr. Deeds (2002) DVDRip | КПК от Generalfilm

9 | 1

366.76 МБ

В этой теме нет новых непрочитанных сообщений. Миллионер поневоле / Mr. Deeds (2002) BDRip-AVC

97 | 3

2.26 ГБ

В этой теме нет новых непрочитанных сообщений. Миллионер поневоле / Mr. Deeds (2002) BDRip от HQCLUB

388 | 20

1.45 ГБ

В этой теме нет новых непрочитанных сообщений. Миллионер поневоле / Mr. Deeds (2002) BDRip 1080p

9 | 5

11.24 ГБ




Вы не можете начинать темы
Вы не можете отвечать на сообщения
Вы не можете редактировать свои сообщения
Вы не можете удалять свои сообщения
Вы не можете добавлять вложения

Перейти:  
Для Мосгорсуда, Роскомнадзора и рекламодателей: mosgorsud-torrent[собачка]yandex.ru
Настройки
ppkBB3cker v.2 © 2008-2014 @ PPK
[ Time : 0.017s | 16 Queries | GZIP : Off ]
CGP [Extreme] output time : 0.00020s | 0 Queries | GZIP : Off

Торрент трекер RUTOR.IN, Не можете зайти на rutor.org? Какой новый адрес рутор? Какое зеркало рутор? Не работает rutor.org и зеркала? Тогда наш торрент специально для вас. Rutor.in неофициальное зеркало rutor. В случае если у Вас заблокирован rutor или вдруг Вы не можете на него зайти, то Вы без труда сможете скачать бесплатно и без рекламы последние новинки кино, игр, сериалов и прочего у нас, на Rutor.in. Не нужно использовать прокси, чтобы зайти на рутор, достаточно воспользоваться нашим ресурсом. Все новые фильмы, игры, сериалы, книги и музыка за 2013 и 2014 годы через торрент бесплатно. Скачивайте фильмы в хорошем качестве, игры для пк, xbox, playstation без регистрации. У нас вы найдете новые Зарубежные сериалы и Русские сериалы 2013, 2014, 2015 годов. Оставайтесь с нами, качайте любимые фильмы, игры, сериалы, книги и музыку.