img image001 image001 image001 image001 image001 image001 image001 image001 image001 image001 image001 image001 image001 image001 image001

Planets Sun Sun Sun
Статистика раздачи
Автор: Снежана | Размер: 4.37 ГБ | Добавлен: 25 июл 2013
Раздают: 442    Качают: 23
Скачать торрент
Скачать торрент
Описание торрента

СообщениеДобавлено: 25 июл 2013 

#77


Название: Черные волки
Год выхода: 2011
Жанр: Криминал, детектив, драма
Режиссер: Дмитрий Константинов
В ролях: Сергей Безруков, Александр Коршунов, Дарья Мороз, Владимир Юматов, Владимир Капустин (II), Александр Голубев, Алена Хмельницкая, Дмитрий Мухамадеев, Анатолий Кот, Кристина Бабушкина, Анна Уколова, Олег Соколов (III), Анатолий Гущин, Юлия Рувинская, Юлия Свежакова, Евгений Серов, Андрей Барило, Евгений Антропов, Сергей Журавель, Олег Заболотный, Петр Томашевский, Михаил Горский, Денис Беспалый, Владимир Виноградов, Ольга Анохина, Денис Елисеев, Игорь Арташонов, Юрий Ваксман, Андрей Демченко, Елена Серова

О фильме: Действие фильма происходит в Ярославле в пятидесятых годах прошлого века. Главный герой, бывший следователь УГРО Павел Хромов, был осужден на восемь лет за преступление, которого не совершал. Освободившись, Павел узнает, что его сестру убили «Черные волки», — так провинциальные жители назвали организованную группировку, которая держит в страхе весь город. На месте преступления, как черную метку, бандиты оставляют волчью голову. Хромову предстоит найти и обезвредить банду и вернуть себе честное имя капитана милиции.



Выпущено: Россия
Продолжительность: 06:26:23
Язык: Русский


Кодек: H264/High@L4.1
Качество видео: DVDRip-AVC
Формат: MKV
Видео: 720x576@1024x576, 16:9, 25 fps, ~1170-1620 kbps avg, 0.113 bit/pixel
Аудио: AC 3, 48 kHz, 6 ch, 448 kbps avg







Общее
Уникальный идентификатор : 242320394177122929958089135500183742199 (0xB64D35D810B3AA6FBFE2A31ECE2C26F7)
Полное имя : Черные_волки.2011.DVDRip(AVC).mkv
Формат : Matroska
Версия формата : Version 2
Размер файла : 4,37 Гбайт
Продолжительность : 6 ч. 26 м.
Общий поток : 1620 Кбит/сек
Дата кодирования : UTC 2012-02-22 21:29:47
Программа кодирования : mkvmerge v5.3.0 ('I could have danced') built on Feb 9 2012 10:38:07
Библиотека кодирования : libebml v1.2.3 + libmatroska v1.3.0

Видео
Идентификатор : 1
Формат : AVC
Формат/Информация : Advanced Video Codec
Профиль формата : High@L4.1
Параметр CABAC формата : Да
Параметр ReFrames формата : 16 кадров
Идентификатор кодека : V_MPEG4/ISO/AVC
Продолжительность : 6 ч. 26 м.
Битрейт : 1170 Кбит/сек
Ширина : 720 пикселей
Высота : 576 пикселей
Соотношение сторон : 16:9
Частота кадров : 25,000 кадров/сек
Стандарт вещания : PAL
Цветовое пространство : YUV
Субдискретизация насыщенности : 4:2:0
Битовая глубина : 8 бит
Тип развёртки : Прогрессивная
Бит/(Пиксели*Кадры) : 0.113
Размер потока : 3,07 Гбайт (70%)
Библиотека кодирования : x264 core 120 r2146 bcd41db
Настройки программы : cabac=1 / ref=16 / deblock=1:-1:-1 / analyse=0x3:0x133 / me=tesa / subme=11 / psy=1 / psy_rd=1.00:0.15 / mixed_ref=1 / me_range=32 / chroma_me=1 / trellis=2 / 8x8dct=1 / cqm=0 / deadzone=21,11 / fast_pskip=0 / chroma_qp_offset=-3 / threads=18 / sliced_threads=0 / nr=0 / decimate=1 / interlaced=0 / bluray_compat=0 / constrained_intra=0 / bframes=8 / b_pyramid=2 / b_adapt=2 / b_bias=0 / direct=3 / weightb=1 / open_gop=0 / weightp=2 / keyint=250 / keyint_min=25 / scenecut=40 / intra_refresh=0 / rc_lookahead=0 / rc=2pass / mbtree=0 / bitrate=1170 / ratetol=1.0 / qcomp=0.60 / qpmin=0 / qpmax=69 / qpstep=4 / cplxblur=20.0 / qblur=0.5 / vbv_maxrate=62500 / vbv_bufsize=78125 / nal_hrd=none / ip_ratio=1.40 / pb_ratio=1.30 / aq=2:1.00

Аудио
Идентификатор : 2
Формат : AC-3
Формат/Информация : Audio Coding 3
Расширение режима : CM (complete main)
Идентификатор кодека : A_AC3
Продолжительность : 6 ч. 26 м.
Вид битрейта : Постоянный
Битрейт : 448 Кбит/сек
Каналы : 6 каналов
Расположение каналов : Front: L C R, Side: L R, LFE
Частота : 48,0 КГц
Битовая глубина : 16 бит
Метод сжатия : С потерями
Размер потока : 1,21 Гбайт (28%)
Язык : Russian

Меню
00:00:00.000 : en:1 серия
00:48:05.100 : en:2 серия
01:37:36.200 : en:3 серия
02:25:50.140 : en:4 серия
03:13:40.130 : en:5 серия
04:01:26.020 : en:6 серия
04:49:16.010 : en:7 серия
05:37:30.180 : en:8 серия



   Похожие торренты   Торрент   Размер 
В этой теме нет новых непрочитанных сообщений. Чёрные волки [01-08 из 08] (2011) DVDRip

670 | 99

4.34 ГБ

В этой теме нет новых непрочитанных сообщений. Чёрные волки [01-08 из 08] (2011) DVDRip от KinoZalSat | Лицензия

782 | 80

5.48 ГБ

В этой теме нет новых непрочитанных сообщений. Черные волки [01-08 из 08] (2011) SATRemux от SilverCinema

72 | 50

12.02 ГБ

В этой теме нет новых непрочитанных сообщений. Черные волки (2011) SATRip | Трейлер

0 | 16

7.11 МБ

В этой теме нет новых непрочитанных сообщений. Чёрные волки [01-08 серии из 08] (2011) 2хDVD9

13 | 7

15.2 ГБ

В этой теме нет новых непрочитанных сообщений. Черные Ангелы / Black Angels / Burakku Enjeruzu (2011) DVDRip от BTT-TEAM

82 | 22

1.39 ГБ

В этой теме нет новых непрочитанных сообщений. Атом-76 - Волки океана (EP) (2011) MP3

0 | 2

70.24 МБ




Вы не можете начинать темы
Вы не можете отвечать на сообщения
Вы не можете редактировать свои сообщения
Вы не можете удалять свои сообщения
Вы не можете добавлять вложения

Перейти:  
Для Мосгорсуда, Роскомнадзора и рекламодателей: mosgorsud-torrent[собачка]yandex.ru
 Вход
ppkBB3cker v.2 © 2008-2014 @ PPK
[ Time : 0.029s | 18 Queries | GZIP : Off ]

cron