img image001 image001 image001 image001 image001 image001 image001 image001 image001 image001 image001 image001 image001 image001 image001

Planets Sun Sun Sun
Статистика раздачи
Автор: Снежана | Размер: 2.74 ГБ | Добавлен: 25 июл 2013
Раздают: 5    Качают: 6
Скачать торрент
Скачать торрент
Описание торрента

СообщениеДобавлено: 25 июл 2013 

#77


Название: Блиндаж
Год выхода: 2011
Жанр: Драма, военный
Режиссер: Александр Горновский
В ролях: Ирина Рахманова, Игорь Хрипунов, Евгений Князев,Алексей Шевченков, Федор Лавров, Сергей Угрюмов, Кирилл Полухин, Евгений Атарик

О фильме: Июль 1941 года. Идут ожесточенные бои под белорусским селом Любаши. Многие жители успевают скрыться в лесах, но некоторые оказываются прямо в эпицентре жаркой битвы. Не в силах сдержать натиск немецких войск, советская армия быстро сдает свои позиции, и фронт отодвигается дальше на восток. Ослепший после взрыва, капитан Хлебников приходит в себя в окопном блиндаже. Понимая, что шансов уйти нет, он пытается застрелиться, но его находит оставшаяся в селе Серафима. Она решает помочь раненому солдату. Вскоре к компании Хлебникова присоединяется немец-дезертир Хольц, райкомовец Демидович и Нохим, чудом выживший после массового расстрела евреев. Все участники необычной компании плохо ладят между собой, но понимая, что от их осторожности зависит жизнь Серафимы, которая с риском для жизни обеспечивает их всем необходимым, они стараются жить в мире.



Выпущено: Россия / Фаворит фильм
Продолжительность: 03:26:30
Язык: Русский


Кодек: H264/High@L4.1
Качество видео: DVDRip-AVC
Формат: MKV
Видео: 720x576@1024x576, 16:9, 25 fps, ~1704 kbps avg, 0.164 bit/pixel
Аудио: AC 3, 48 kHz, 2 ch, 192 kbps avg









Общее
Уникальный идентификатор : 213071216102438781882123743446513803160 (0xA04C060693E9D873894E48331764DF98)
Полное имя : Блиндаж.2011.DVDRip(AVC).mkv
Формат : Matroska
Версия формата : Version 2
Размер файла : 2,74 Гбайт
Продолжительность : 3 ч. 26 м.
Общий поток : 1897 Кбит/сек
Дата кодирования : UTC 2012-02-26 08:25:01
Программа кодирования : mkvmerge v5.3.0 ('I could have danced') built on Feb 9 2012 10:38:07
Библиотека кодирования : libebml v1.2.3 + libmatroska v1.3.0

Видео
Идентификатор : 1
Формат : AVC
Формат/Информация : Advanced Video Codec
Профиль формата : High@L4.1
Параметр CABAC формата : Да
Параметр ReFrames формата : 16 кадров
Идентификатор кодека : V_MPEG4/ISO/AVC
Продолжительность : 3 ч. 26 м.
Битрейт : 1704 Кбит/сек
Ширина : 720 пикселей
Высота : 576 пикселей
Соотношение сторон : 16:9
Частота кадров : 25,000 кадров/сек
Стандарт вещания : PAL
Цветовое пространство : YUV
Субдискретизация насыщенности : 4:2:0
Битовая глубина : 8 бит
Тип развёртки : Прогрессивная
Бит/(Пиксели*Кадры) : 0.164
Размер потока : 2,40 Гбайт (88%)
Библиотека кодирования : x264 core 120 r2146 bcd41db
Настройки программы : cabac=1 / ref=16 / deblock=1:-1:-1 / analyse=0x3:0x133 / me=tesa / subme=11 / psy=1 / psy_rd=1.00:0.15 / mixed_ref=1 / me_range=32 / chroma_me=1 / trellis=2 / 8x8dct=1 / cqm=0 / deadzone=21,11 / fast_pskip=0 / chroma_qp_offset=-3 / threads=18 / sliced_threads=0 / nr=0 / decimate=0 / interlaced=0 / bluray_compat=0 / constrained_intra=0 / bframes=12 / b_pyramid=2 / b_adapt=2 / b_bias=0 / direct=3 / weightb=1 / open_gop=0 / weightp=2 / keyint=250 / keyint_min=25 / scenecut=40 / intra_refresh=0 / rc_lookahead=0 / rc=2pass / mbtree=0 / bitrate=1704 / ratetol=1.0 / qcomp=0.60 / qpmin=0 / qpmax=69 / qpstep=4 / cplxblur=20.0 / qblur=0.5 / vbv_maxrate=62500 / vbv_bufsize=78125 / nal_hrd=none / ip_ratio=1.40 / pb_ratio=1.30 / aq=2:1.00

Аудио
Идентификатор : 2
Формат : AC-3
Формат/Информация : Audio Coding 3
Расширение режима : CM (complete main)
Идентификатор кодека : A_AC3
Продолжительность : 3 ч. 26 м.
Вид битрейта : Постоянный
Битрейт : 192 Кбит/сек
Каналы : 2 канала
Расположение каналов : Front: L R
Частота : 48,0 КГц
Битовая глубина : 16 бит
Метод сжатия : С потерями
Размер потока : 284 Мбайт (10%)
Язык : Russian

Меню
00:00:00.000 : en: 1 серия
00:50:24.000 : en: 2 серия
01:42:27.190 : en: 3 серия
02:34:03.000 : en: 4 серия



   Похожие торренты   Торрент   Размер 
В этой теме нет новых непрочитанных сообщений. Блиндаж [01-04 из 04] (2011) DVDRip-AVC от R.G. AVI | AVC | Лицензия

6 | 2

3.99 ГБ

В этой теме нет новых непрочитанных сообщений. Блиндаж [01-04 из 04] (2011) DVDRip | КПК от Generalfilm

4 | 2

769.37 МБ

В этой теме нет новых непрочитанных сообщений. Блиндаж [01-04 из 04] (2011) DVDRip | Лицензия

107 | 18

2.74 ГБ

В этой теме нет новых непрочитанных сообщений. Блиндаж [01-04 из 04] (2011) DVDRip от MediaClub | КПК

180 | 19

946.41 МБ

В этой теме нет новых непрочитанных сообщений. Блиндаж [01-04 из 04] (2011) DVD9 | Лицензия

168 | 3

7.51 ГБ

В этой теме нет новых непрочитанных сообщений. Rush - Time Machine 2011: Live in Cleveland (2011) DVDRip от Generalfilm

9 | 3

1.37 ГБ

В этой теме нет новых непрочитанных сообщений. B.B. King - Live at the Royal Albert Hall 2011 (2011) DVDRip-AVC

5 | 3

1.78 ГБ




Вы не можете начинать темы
Вы не можете отвечать на сообщения
Вы не можете редактировать свои сообщения
Вы не можете удалять свои сообщения
Вы не можете добавлять вложения

Перейти:  
Для Мосгорсуда, Роскомнадзора и рекламодателей: mosgorsud-torrent[собачка]yandex.ru
 Вход
ppkBB3cker v.2 © 2008-2014 @ PPK
[ Time : 0.027s | 14 Queries | GZIP : On ]

Торрент трекер RUTOR.IN, Не можете зайти на rutor.org? Какой новый адрес рутор? Какое зеркало рутор? Не работает rutor.org и зеркала? Тогда наш торрент специально для вас. Rutor.in неофициальное зеркало rutor. В случае если у Вас заблокирован rutor или вдруг Вы не можете на него зайти, то Вы без труда сможете скачать бесплатно и без рекламы последние новинки кино, игр, сериалов и прочего у нас, на Rutor.in. Не нужно использовать прокси, чтобы зайти на рутор, достаточно воспользоваться нашим ресурсом. Все новые фильмы, игры, сериалы, книги и музыка за 2013 и 2014 годы через торрент бесплатно. Скачивайте фильмы в хорошем качестве, игры для пк, xbox, playstation без регистрации. У нас вы найдете новые Зарубежные сериалы и Русские сериалы 2013, 2014, 2015 годов. Оставайтесь с нами, качайте любимые фильмы, игры, сериалы, книги и музыку.