img image001 image001 image001 image001 image001 image001 image001 image001 image001 image001 image001 image001 image001 image001 image001

Planets Sun Sun Sun
Статистика раздачи
Автор: Снежана | Размер: 13.98 ГБ | Добавлен: 25 июл 2013
Раздают: 15    Качают: 3
Скачать торрент
Скачать торрент
Описание торрента

СообщениеДобавлено: 25 июл 2013 

#77

Информация о фильме
Оригинальное название: Фурцева. Легенда о Екатерине
Год выпуска: 2011
Жанр: Исторический фильм, мелодрама
Режиссер: Сергей Попов
В ролях: Татьяна Арнтгольц, Ирина Розанова, Нина Усатова, Максим Аверин, Александр Домогаров, Геннадий Хазанов, Виктор Сухоруков, Артур Ваха, Валерий Баринов, Елена Галибина, Сергей Юрский, Александра Мельник, Руслан Щедрин, Екатерина Вилкова, Борис Каморзин, Тимофей Каратаев, Сергей Потапов, Алена Разживина, Галина Строганова

О фильме:
Екатерина Алексеевна Фурцева… Единственная женщина, достигшая в СССР вершин власти. Ее жизнь была богата на события. Пройденный путь от провинциальной девчонки до хозяйки Москвы, члена правительства, Министра культуры — извилист, непредсказуем и драматичен. А ее смерть — столь загадочна, что подлинная биография сегодня уже неотделима от слухов, домыслов и легенд…



Выпущено: Россия, Группа компаний GP
Продолжительность: 12 ~ 00:50:00
Перевод: Оригинал [Лицензия]

Файл
Качество: IPTVRip
Кодек: XviD
Видео: PAL 16:9 (720x576(0.315)) MPEG Video, 25,000 кадр/сек, 3271 Кбит/сек
Аудио: Russian (Dolby AC3, 2 ch) 192 Кбит/сек, 48,0 КГц
Скачать: Сэмпл

Title:
Size: 7.32 Gb ( 7 678 232 KBytes ) - DVD-9
Enabled regions: 1, 2, 3, 4, 5, 6, 7, 8

VTS_01 :
Play Length: 00:00:15
Video: PAL 4:3 (720x576) VBR
Audio:
Not specified (Dolby AC3, 2 ch)

VTS_02 :
Play Length: 00:00:08
Video: PAL 16:9 (720x576) VBR, Auto Pan&Scan
Audio:
Not specified (Dolby AC3, 2 ch)

VTS_03 :
Play Length: 00:49:36
Video: PAL 16:9 (720x576) VBR, Auto Pan&Scan
Audio:
Not specified (Dolby AC3, 2 ch)

VTS_04 :
Play Length: 00:52:19
Video: PAL 16:9 (720x576) VBR, Auto Pan&Scan
Audio:
Not specified (Dolby AC3, 2 ch)

VTS_05 :
Play Length: 00:51:54
Video: PAL 16:9 (720x576) VBR, Auto Pan&Scan
Audio:
Not specified (Dolby AC3, 2 ch)

VTS_06 :
Play Length: 00:52:16
Video: PAL 16:9 (720x576) VBR, Auto Pan&Scan
Audio:
Not specified (Dolby AC3, 2 ch)

VTS_07 :
Play Length: 00:52:07
Video: PAL 16:9 (720x576) VBR, Auto Pan&Scan
Audio:
Not specified (Dolby AC3, 2 ch)

VTS_08 :
Play Length: 00:50:50
Video: PAL 16:9 (720x576) VBR, Auto Pan&Scan
Audio:
Not specified (Dolby AC3, 2 ch)

Menu Video:
PAL 16:9 (720x576) VBR
Auto Letterboxed
Menu Audio:
Not specified (LinearPCM, 2 ch)
Menu Subtitles:
Not specified
Menu English Language Unit :
Root Menu
Chapter (PTT) Menu
Title:
Size: 6.66 Gb ( 6 983 264 KBytes ) - DVD-9
Enabled regions: 1, 2, 3, 4, 5, 6, 7, 8

VTS_01 :
Play Length: 00:00:15
Video: PAL 4:3 (720x576) VBR
Audio:
Not specified (Dolby AC3, 2 ch)

VTS_02 :
Play Length: 00:00:08
Video: PAL 16:9 (720x576) VBR, Auto Pan&Scan
Audio:
Not specified (Dolby AC3, 2 ch)

VTS_03 :
Play Length: 00:50:48
Video: PAL 16:9 (720x576) VBR, Auto Pan&Scan
Audio:
Not specified (Dolby AC3, 2 ch)

VTS_04 :
Play Length: 00:45:35
Video: PAL 16:9 (720x576) VBR, Auto Pan&Scan
Audio:
Not specified (Dolby AC3, 2 ch)

VTS_05 :
Play Length: 00:47:49
Video: PAL 16:9 (720x576) VBR, Auto Pan&Scan
Audio:
Not specified (Dolby AC3, 2 ch)

VTS_06 :
Play Length: 00:50:45
Video: PAL 16:9 (720x576) VBR, Auto Pan&Scan
Audio:
Not specified (Dolby AC3, 2 ch)

VTS_07 :
Play Length: 00:52:15
Video: PAL 16:9 (720x576) VBR, Auto Pan&Scan
Audio:
Not specified (Dolby AC3, 2 ch)

VTS_08 :
Play Length: 00:48:34
Video: PAL 16:9 (720x576) VBR, Auto Pan&Scan
Audio:
Not specified (Dolby AC3, 2 ch)

Menu Video:
PAL 16:9 (720x576) VBR
Auto Letterboxed
Menu Audio:
Not specified (LinearPCM, 2 ch)
Menu Subtitles:
Not specified
Menu English Language Unit :
Root Menu
Chapter (PTT) Menu
Общее
Полное имя : G:Новинки 2012Furceva.Legenda.o.Ekaterine.(1-12.serii.iz.12).2011.2.x.DVD-9Disc1VIDEO_TSVTS_03_1.VOB
Формат : MPEG-PS
Размер файла : 1024 Мбайт
Продолжительность : 40 м.
Режим общего битрейта : Переменный
Общий поток : 3533 Кбит/сек

Видео
Идентификатор : 224 (0xE0)
Формат : MPEG Video
Версия формата : Version 2
Профиль формата : Main@Main
Параметр BVOP формата : Да
Параметр матрицы формата : По умолчанию
Параметр GOP формата : M=3, N=12
Продолжительность : 40 м.
Вид битрейта : Переменный
Битрейт : 3271 Кбит/сек
Максимальный битрейт : 7500 Кбит/сек
Ширина : 720 пикселей
Высота : 576 пикселей
Соотношение сторон : 16:9
Частота кадров : 25,000 кадров/сек
Стандарт вещания : PAL
Цветовое пространство : YUV
Субдискретизация насыщенности : 4:2:0
Битовая глубина : 8 бит
Тип развёртки : Прогрессивная
Метод сжатия : С потерями
Бит/(Пиксели*Кадры) : 0.315
Размер потока : 948 Мбайт (93%)

Аудио
Идентификатор : 189 (0xBD)-128 (0x80)
Формат : AC-3
Формат/Информация : Audio Coding 3
Расширение режима : CM (complete main)
Режим смешивания : DVD-Video
Продолжительность : 40 м.
Вид битрейта : Постоянный
Битрейт : 192 Кбит/сек
Каналы : 2 канала
Расположение каналов : Front: L R
Частота : 48,0 КГц
Битовая глубина : 16 бит
Метод сжатия : С потерями
Размер потока : 55,6 Мбайт (5%)


Скриншоты





   Похожие торренты   Торрент   Размер 
В этой теме нет новых непрочитанных сообщений. Фурцева. Легенда о Екатерине [01-12 из 12] (2011) DVDRip | Лицензия

173 | 13

8.12 ГБ

В этой теме нет новых непрочитанных сообщений. Аватар: Легенда об Аанге / Avatar: The Last Airbender [S01, 03 из 03] (2005-2008) DVD5, 2xDVD9 от New-Team | D | Лицензия

117 | 52

15.97 ГБ

В этой теме нет новых непрочитанных сообщений. Рио 1-2 / Rio 1-2 (2011-2014) 2xDVD9 от New-Team | D | Лицензия

88 | 26

11.64 ГБ

В этой теме нет новых непрочитанных сообщений. Ронал-варвар / Ronal Barbaren (2011) 2xDVD9 | Лицензия | 2D+3D-Video

4 | 1

10.78 ГБ

В этой теме нет новых непрочитанных сообщений. Однажды в Одессе / Жизнь и приключения Мишки Япончика [01-12 из 12] (2011) 2xDVD9 | Лицензия

45 | 19

15 ГБ

В этой теме нет новых непрочитанных сообщений. Первый мститель 1-2 / Captain America 1-2 (2011-2014) 2xDVD9 от New-Team | D | Лицензия

87 | 45

13.72 ГБ

В этой теме нет новых непрочитанных сообщений. Сумерки. Сага. Рассвет: Часть 1 / The Twilight Saga: Breaking Dawn - Part 1 (2011) 2xDVD9 | Лицензия

7 | 2

15.4 ГБ




Вы не можете начинать темы
Вы не можете отвечать на сообщения
Вы не можете редактировать свои сообщения
Вы не можете удалять свои сообщения
Вы не можете добавлять вложения

Перейти:  
Для Мосгорсуда, Роскомнадзора и рекламодателей: mosgorsud-torrent[собачка]yandex.ru
 Вход
ppkBB3cker v.2 © 2008-2014 @ PPK
[ Time : 0.632s | 15 Queries | GZIP : Off ]

Торрент трекер RUTOR.IN, Не можете зайти на rutor.org? Какой новый адрес рутор? Какое зеркало рутор? Не работает rutor.org и зеркала? Тогда наш торрент специально для вас. Rutor.in неофициальное зеркало rutor. В случае если у Вас заблокирован rutor или вдруг Вы не можете на него зайти, то Вы без труда сможете скачать бесплатно и без рекламы последние новинки кино, игр, сериалов и прочего у нас, на Rutor.in. Не нужно использовать прокси, чтобы зайти на рутор, достаточно воспользоваться нашим ресурсом. Все новые фильмы, игры, сериалы, книги и музыка за 2013 и 2014 годы через торрент бесплатно. Скачивайте фильмы в хорошем качестве, игры для пк, xbox, playstation без регистрации. У нас вы найдете новые Зарубежные сериалы и Русские сериалы 2013, 2014, 2015 годов. Оставайтесь с нами, качайте любимые фильмы, игры, сериалы, книги и музыку.
cron