img image001 image001 image001 image001 image001 image001 image001 image001 image001 image001 image001 image001 image001 image001 image001

Planets Sun Sun Sun
Статистика раздачи
Автор: Снежана | Размер: 7.52 ГБ | Добавлен: 25 июл 2013
Раздают: 6    Качают: 1
Скачать торрент
Скачать торрент
Описание торрента

СообщениеДобавлено: 25 июл 2013 



Информация о фильме
Название: Прослушка
Оригинальное название: The Wire
Год выхода: 2008
Жанр: Криминальная драма
Режиссер: Дэвид Саймон
В ролях: Доминик Уэст, Джон Доумен, Дирдри Лавджой, Уенделл Пирс, Лэнс Реддик, Соня Сон, Сет Гиллиам, Доменик Ломбардоззи, Кларк Питерс, Андре Ройо.

О фильме:
Подразделение полицейских в Балтиморе пытается с помощью специальных средств и мероприятий по прослушиванию и скрытой видеосъемке довести до суда расследование преступлений организованных преступных групп, которые занимаются незаконным распространением наркотиков.

Криминальная драма, написана, снята и спродюсирована в Балтиморе бывшим полицейским репортером Дэвидом Саймоном. Премьера первого сезона состоялась 2 июня 2002 г. на канале HBO, последняя серия вышла в эфир 9 марта 2008 г.


Страна: США
Студия: HBO
Продолжительность: ~ 00:58:00 - Серия
Перевод: Авторский (одноголосый, закадровый) В. Воротинцев (SOLDLUCK)

Файл
Формат: mkv
Качество: DVDRip
Видео: 704х480. 1 376 Kbps. 23.976 fps.
Звук:
MP3, 48 KHz, 2 ch, 160kbps
MP3, 44 KHz, 2 ch, 160kbps
Субтитры: Русские. В. Воротинцев (SOLDLUCK)

Format : Matroska
Format version : Version 2
File size : 726 MiB
Duration : 58mn 41s
Overall bit rate : 1 730 Kbps
Encoded date : UTC 2011-12-09 11:38:02
Writing application : mkvmerge v4.4.0 ('Die Wiederkehr') сборка от Oct 31 2010 21:52:48
Writing library : libebml v1.0.0 + libmatroska v1.0.0

Video
ID : 1
Format : AVC
Format/Info : Advanced Video Codec
Format profile : High@L3.1
Format settings, CABAC : Yes
Format settings, ReFrames : 8 frames
Muxing mode : Header stripping
Codec ID : V_MPEG4/ISO/AVC
Duration : 58mn 41s
Bit rate : 1 376 Kbps
Nominal bit rate : 4 500 Kbps
Width : 704 pixels
Height : 480 pixels
Display aspect ratio : 4:3
Original display aspect ratio : 3:2
Frame rate : 23.976 fps
Standard : NTSC
Color space : YUV
Chroma subsampling : 4:2:0
Bit depth : 8 bits
Scan type : Progressive
Bits/(Pixel*Frame) : 0.170
Stream size : 577 MiB (80%)
Title : The Wire - S05E01
Writing library : x264 core 61 r955M d4265bb
Encoding settings : cabac=1 / ref=8 / deblock=1:-1:-1 / analyse=0x3:0x113 / me=umh / subme=7 / psy_rd=0.8:0.3 / brdo=1 / mixed_ref=1 / me_range=24 / chroma_me=1 / trellis=2 / 8x8dct=1 / cqm=0 / deadzone=21,11 / chroma_qp_offset=-4 / threads=6 / nr=0 / decimate=1 / mbaff=0 / bframes=16 / b_pyramid=1 / b_adapt=1 / b_bias=0 / direct=3 / wpredb=1 / bime=1 / keyint=250 / keyint_min=25 / scenecut=40(pre) / rc=2pass / bitrate=4500 / ratetol=1.0 / qcomp=1.00 / qpmin=10 / qpmax=51 / qpstep=4 / cplxblur=20.0 / qblur=0.5 / ip_ratio=1.40 / pb_ratio=1.30 / aq=2:0.70
Language : English

Audio #1
ID : 2
Format : MPEG Audio
Format version : Version 1
Format profile : Layer 3
Mode : Joint stereo
Muxing mode : Header stripping
Codec ID : A_MPEG/L3
Codec ID/Hint : MP3
Duration : 58mn 41s
Bit rate mode : Constant
Bit rate : 160 Kbps
Channel(s) : 2 channels
Sampling rate : 48.0 KHz
Compression mode : Lossy
Stream size : 67.2 MiB (9%)
Title : Soldluk
Language : Russian

Audio #2
ID : 3
Format : MPEG Audio
Format version : Version 1
Format profile : Layer 3
Mode : Joint stereo
Mode extension : MS Stereo
Muxing mode : Header stripping
Codec ID : A_MPEG/L3
Codec ID/Hint : MP3
Duration : 58mn 41s
Bit rate mode : Constant
Bit rate : 160 Kbps
Channel(s) : 2 channels
Sampling rate : 44.1 KHz
Compression mode : Lossy
Stream size : 67.2 MiB (9%)
Title : English
Language : English

Text
ID : 4
Format : UTF-8
Codec ID : S_TEXT/UTF8
Codec ID/Info : UTF-8 Plain Text
Title : Soldluk
Language : Russian








   Похожие торренты   Торрент   Размер 
В этой теме нет новых непрочитанных сообщений. Прослушка / The Wire [s05х01-10] (2008) DVDRip

7 | 3

7.69 ГБ

В этой теме нет новых непрочитанных сообщений. Прослушка / The Wire [S01-S05] (2002-2008) DVDRip | КПК

14 | 13

11.02 ГБ

В этой теме нет новых непрочитанных сообщений. Прослушка / The Wire [S01-05] (2002-2008) DVDRip | P

95 | 82

41.9 ГБ

В этой теме нет новых непрочитанных сообщений. Прослушка / The Wire [S01-05] (2002-2008) WEB-DLRip

290 | 251

39.53 ГБ

В этой теме нет новых непрочитанных сообщений. OST - Прослушка / The Wire (And All the Pieces Matter) (2008) MP3

9 | 2

104.35 МБ

В этой теме нет новых непрочитанных сообщений. Прослушка / The Wire [S01-05] (2002–2008) WEB-DL 720p | Р, 4хА

24 | 128

127.81 ГБ

В этой теме нет новых непрочитанных сообщений. Прослушка / The Wire [S01-05] (2002–2008) BDRip 720p | P, P2, A, L1

3 | 11

197.03 ГБ




Вы не можете начинать темы
Вы не можете отвечать на сообщения
Вы не можете редактировать свои сообщения
Вы не можете удалять свои сообщения
Вы не можете добавлять вложения

Перейти:  
Для Мосгорсуда, Роскомнадзора и рекламодателей: mosgorsud-torrent[собачка]yandex.ru
 Вход
ppkBB3cker v.2 © 2008-2014 @ PPK
[ Time : 0.052s | 16 Queries | GZIP : Off ]

cron