img image001 image001 image001 image001 image001 image001 image001 image001 image001 image001 image001 image001 image001 image001 image001

Planets Sun Sun Sun
Статистика раздачи
Автор: Снежана | Размер: 8.98 ГБ | Добавлен: 25 июл 2013
Раздают: 80    Качают: 15
Скачать торрент
Скачать торрент
Описание торрента

СообщениеДобавлено: 25 июл 2013 

#77
Информация о фильме
Название: Ходячие Мертвецы
Оригинальное название: The Walking Dead
Год выпуска: 2010
Жанр: ужасы, триллер, фантастика, драма
Режиссер:Фрэнк Дарабонт, Эрнест Р. Дикерсон, Гай Ферленд
Продюссер: Денис М. Хут
Сценарий: Фрэнк Дарабонт, Роберт Киркман

В ролях: Джон Бернтал, Джеффри ДеМун, Лори Холден, Эндрю Линкольн, Адам Минарович, Чендлер Риггз, Майкл Рукер, Сара Уэйн Кэллис

Описание: Вирус превратил жителей Земли в зомби. Небольшая группа выживших изо дня в день борется за существование в новом, враждебном мире. Под предводительством бывшего полицейского Рика они ищут безопасное для жизни место. Но не стоит заблуждаться — зомби отнюдь не самое страшное, что ждет наших героев. Основная опасность — другие оставшиеся в живых...


Страничка сериала на tv.com:

Страна: США
Продолжительность: ~ 45 мин. серия
Перевод: Русскоязычный двухголосый закадровый перевод (студия «Новамедиа»)

Релиз:
Перевод: hatifnatten, Ю. Сербин
Озвучивание и работа со звуком: студия «Новамедиа»

Эпизод 1. Days Gone Bye / Дни, Ушедшие Навсегда Выйдя из комы, Рик пускается на поиски своей семьи в мире, захваченном ходячими мертвецами. Морган и Дуэйн, с которыми он встречается по пути, обучают Рика новым правилам выживания.

Эпизод 2. Guts / Кишки Группа выживших попадает в ловушку ходячих мертвецов по вине Рика. Они активно переходят от обвинений к насилию, а Рику предстоит противостоять гораздо более опасному врагу нежели мертвецы.

Эпизод 3. Tell It to the Frogs / Скажи Это Лягушкам Рик принимает решение вернуться в Атланту, чтобы забрать сумку с оружием и спасти людям жизнь. Лори и Шейн должны разобраться с внезапным возвращением того, кого они считали мертвым.

Эпизод 4. Vatos / Ватос (Братаны) Миссия Рика в Атланту подвергается опасности, когда план проваливается. Джим теряет рассудок в лагере.

Эпизод 5. Wildfire / Лесной пожар После нападения Рик ведет группу выживших в Центр по контролю и профилактике заболеваний. Джим должен принять жизненно важное решение.

Эпизод 6. TS-19 / ТС-19 В Центре по профилактике заболеваний Рика и группу встречает странный доктор. Но в их новом убежище все обстоит далеко не так, как кажется на первый взгляд.


Файл
Качество: WEB-DL 720p
Формат: MKV
Видео кодек: H.264
Аудио кодек: AC3
Видео: 1280×720 (1.78:1), 23.976 fps, 3943 kbps avg, 0,17 bit/pixel
Аудио 1: Rus 48 kHz, Dolby Digital 2.0 @ 192 kbps
Аудио 2: Eng 48 kHz, Dolby Digital 2.0 @ 192 kbps
Формат : Matroska
Размер файла : 1,45 Гбайт
Продолжительность : 45 м.
Общий поток : 4608 Кбит/сек
Дата кодирования : UTC 2010-12-08 16:26:48
Программа кодирования : mkvmerge v4.0.0 ('The Stars were mine') сборка от Jun 6 2010 16:18:42
Библиотека кодирования : libebml v1.0.0 + libmatroska v1.0.0

Видео
Идентификатор : 1
Формат : AVC
Формат/Информация : Advanced Video Codec
Профиль формата : High@L3.1
Параметр CABAC формата : Нет
Параметр ReFrames формата : 2 кадры
Идентификатор кодека : V_MPEG4/ISO/AVC
Продолжительность : 45 м.
Битрейт : 4132 Кбит/сек
Ширина : 1280 пикс.
Высота : 720 пикс.
Соотношение сторон : 16:9
Частота кадров : 23,976 кадр/сек
Цветовое пространство : YUV
Подвыборка цветности : 4:2:0
Битовая глубина : 8 бит
Тип развёртки : Прогрессивная
Бит/(Пиксели*Кадры) : 0.187
Размер потока : 1,30 Гбайт (90%)
Заголовок : The Walking Dead - Season 1, Episode 4: Vatos ("Ватос")
Язык : English
Основные цвета : BT.709-5, BT.1361, IEC 61966-2-4, SMPTE RP177
Характеристики трансфера : BT.709-5, BT.1361
Коэффициенты матрицы : BT.709-5, BT.1361, IEC 61966-2-4 709, SMPTE RP177

Аудио #1
Идентификатор : 2
Формат : AC-3
Формат/Информация : Audio Coding 3
Расширение режима : CM (complete main)
Идентификатор кодека : A_AC3
Продолжительность : 45 м.
Вид битрейта : Постоянный
Битрейт : 192 Кбит/сек
Канал(ы) : 2 канала(ов)
Расположение каналов : Front: L R
Частота : 48,0 КГц
Битовая глубина : 16 бит
Метод сжатия : С потерями
Задержка видео : 2 мс.
Размер потока : 61,8 Мбайт (4%)
Заголовок : Dolby Digital 2.0 @ 192 kbps
Язык : Russian

Аудио #2
Идентификатор : 3
Формат : AC-3
Формат/Информация : Audio Coding 3
Расширение режима : CM (complete main)
Идентификатор кодека : A_AC3
Продолжительность : 45 м.
Вид битрейта : Постоянный
Битрейт : 192 Кбит/сек
Канал(ы) : 2 канала(ов)
Расположение каналов : Front: L R
Частота : 48,0 КГц
Битовая глубина : 16 бит
Метод сжатия : С потерями
Задержка видео : 2 мс.
Размер потока : 61,8 Мбайт (4%)
Заголовок : Dolby Digital 2.0 @ 192 kbps
Язык : English




   Похожие торренты   Торрент   Размер 
В этой теме нет новых непрочитанных сообщений. Ходячие мертвецы / The Walking Dead [S01-02] (2010-2012) WEB-DLRip | NovaFilm

18 | 9

7.91 ГБ

В этой теме нет новых непрочитанных сообщений. Ходячие мертвецы / The Walking Dead [S02] (2011-2012) WEB-DL 720p от NovaFilm

43 | 14

17.61 ГБ

В этой теме нет новых непрочитанных сообщений. Ходячие мертвецы / The Walking Dead [02х01-12] (2011-2012) WEB-DLRip | NovaFilm

4 | 37

4.89 ГБ

В этой теме нет новых непрочитанных сообщений. Ходячие мертвецы / The Walking Dead [01x01-06 из 06] (2010) WEB-DLRip 720p

7 | 9

10.85 ГБ

В этой теме нет новых непрочитанных сообщений. Ходячие мертвецы: Вэбизоды / The Walking Dead: Webisodes (2010) WEB-DL (720p)

3 | 2

308.32 МБ

В этой теме нет новых непрочитанных сообщений. Ходячие мертвецы / The Walking Dead [S01] (2010) BDRip 720p от HQ-ViDEO

18 | 12

21.29 ГБ

В этой теме нет новых непрочитанных сообщений. Ходячие мертвецы / The Walking Dead [S01] (2010-2011) BDRip 720p от Filmrus

6 | 7

22.55 ГБ




Вы не можете начинать темы
Вы не можете отвечать на сообщения
Вы не можете редактировать свои сообщения
Вы не можете удалять свои сообщения
Вы не можете добавлять вложения

Перейти:  
Для Мосгорсуда, Роскомнадзора и рекламодателей: mosgorsud-torrent[собачка]yandex.ru
 Вход
ppkBB3cker v.2 © 2008-2014 @ PPK
[ Time : 0.085s | 15 Queries | GZIP : Off ]

Торрент трекер RUTOR.IN, Не можете зайти на rutor.org? Какой новый адрес рутор? Какое зеркало рутор? Не работает rutor.org и зеркала? Тогда наш торрент специально для вас. Rutor.in неофициальное зеркало rutor. В случае если у Вас заблокирован rutor или вдруг Вы не можете на него зайти, то Вы без труда сможете скачать бесплатно и без рекламы последние новинки кино, игр, сериалов и прочего у нас, на Rutor.in. Не нужно использовать прокси, чтобы зайти на рутор, достаточно воспользоваться нашим ресурсом. Все новые фильмы, игры, сериалы, книги и музыка за 2013 и 2014 годы через торрент бесплатно. Скачивайте фильмы в хорошем качестве, игры для пк, xbox, playstation без регистрации. У нас вы найдете новые Зарубежные сериалы и Русские сериалы 2013, 2014, 2015 годов. Оставайтесь с нами, качайте любимые фильмы, игры, сериалы, книги и музыку.