img image001 image001 image001 image001 image001 image001 image001 image001 image001 image001 image001 image001 image001 image001 image001

Planets Sun Sun Sun
Статистика раздачи
Автор: Снежана | Размер: 9.13 ГБ | Добавлен: 25 июл 2013
Раздают: 4    Качают: 1
Скачать торрент
Скачать торрент
Описание торрента

СообщениеДобавлено: 25 июл 2013 

#77

Информация о фильме
Название: Без следа
Оригинальное название: Without a Trace
Год выхода: 2005
Жанр: триллер, драма, криминал, детектив
Режиссер: Джон Шоуолтер, Скотт Уайт, Джефф Т. Томас
В ролях: Энтони ЛаПалья, Поппи Монтгомери, Энрике Маркиано, Эрик Клоуз, Марианн Жан-Баптист, Розелин Санчез, Ти Миллер, Джош Гомез, Адриана ДеМео, Эрик Скотт Гулд, Джессалин Гилсиг, Элизабет Беркли, Линн Уитфилд

О фильме:
Подразделение специального назначения, возглавляемое старшим агентом Джеком Мэлоуном, разыскивает исчезнувших людей, применяя последние достижения психологии. Команда Мэлоуна тщательно изучает все события жизни жертвы, постепенно выясняя, был ли человек похищен или намеренно скрывается, погиб ли он насильственной смертью или сам свел счеты с жизнью.

События дня исчезновения вплоть до минут выстраиваются в ряд согласно простому принципу: выяснив, кем является жертва, можно понять, где она сейчас находится. Однако, несмотря на самые активные поиски, агенты не всесильны и, конечно, им не чужды человеческие слабости. Иногда ошибки бумерангом возвращаются и преследуют их. Далеко не все подчиняется логике и идет по намеченному плану — часто события разворачиваются в непредсказуемом направлении.
Официальный сайт

Страна: США
Студия: CBS
Продолжительность: 24 серии ~ 00:42:00
Перевод: Профессиональный (многоголосый, закадровый) [НТВ] / Оригинал

Файл
Кодек: XviD / MP3
Качество: HDTVRip
Видео: XviD, 624x352 (16:9), 23.976 fps, 1 027 Kbps (0.195 bit/pixel)
Звук:
Аудио #1: MP3, 48.0 KHz, 2 ch, 128 Kbps, CBR [rus]
Аудио #2: MP3, 48.0 KHz, 2 ch, 117 Kbps, VBR [eng]

General
Complete name : D:WorkBez.sleda.01.seria.iz.24.avi
Format : AVI
Format/Info : Audio Video Interleave
File size : 390 MiB
Duration : 42mn 19s
Overall bit rate mode : Variable
Overall bit rate : 1 289 Kbps
Writing application : VirtualDubMod 1.5.10.2 (build 2542/release)
Writing library : VirtualDubMod build 2542/release

Video
ID : 0
Format : MPEG-4 Visual
Format profile : Advanced Simple@L5
Format settings, BVOP : 2
Format settings, QPel : No
Format settings, GMC : No warppoints
Format settings, Matrix : Default (H.263)
Muxing mode : Packed bitstream
Codec ID : XVID
Codec ID/Hint : XviD
Duration : 42mn 19s
Bit rate : 1 027 Kbps
Width : 624 pixels
Height : 352 pixels
Display aspect ratio : 16:9
Frame rate : 23.976 fps
Color space : YUV
Chroma subsampling : 4:2:0
Bit depth : 8 bits
Scan type : Progressive
Compression mode : Lossy
Bits/(Pixel*Frame) : 0.195
Stream size : 311 MiB (80%)
Writing library : XviD 1.1.0 Beta1 (UTC 2005-01-16)

Audio #1
ID : 1
Format : MPEG Audio
Format version : Version 1
Format profile : Layer 3
Mode : Joint stereo
Mode extension : MS Stereo
Codec ID : 55
Codec ID/Hint : MP3
Duration : 42mn 19s
Bit rate mode : Constant
Bit rate : 128 Kbps
Channel(s) : 2 channels
Sampling rate : 48.0 KHz
Compression mode : Lossy
Stream size : 38.7 MiB (10%)
Alignment : Aligned on interleaves
Interleave, duration : 42 ms (1.00 video frame)
Interleave, preload duration : 504 ms

Audio #2
ID : 2
Format : MPEG Audio
Format version : Version 1
Format profile : Layer 3
Mode : Joint stereo
Mode extension : MS Stereo
Codec ID : 55
Codec ID/Hint : MP3
Duration : 42mn 19s
Bit rate mode : Variable
Bit rate : 117 Kbps
Nominal bit rate : 128 Kbps
Channel(s) : 2 channels
Sampling rate : 48.0 KHz
Compression mode : Lossy
Stream size : 35.3 MiB (9%)
Alignment : Aligned on interleaves
Interleave, duration : 24 ms (0.58 video frame)
Interleave, preload duration : 490 ms
Writing library : LAME3.92
Encoding settings : -m j -V 4 -q 2 -lowpass 15.3 --abr 128




   Похожие торренты   Торрент   Размер 
В этой теме нет новых непрочитанных сообщений. Без следа / Without a Trace [S05] (2006) HDTVRip

18 | 1

8.18 ГБ

В этой теме нет новых непрочитанных сообщений. Без следа / Without a Trace [S06] (2007) HDTVRip

24 | 3

6.81 ГБ

В этой теме нет новых непрочитанных сообщений. Без следа / Without a Trace [S07] (2008) HDTVRip

20 | 4

9.13 ГБ

В этой теме нет новых непрочитанных сообщений. Без следа / Without a Trace (1983) HDTVRip | P

56 | 11

1.45 ГБ

В этой теме нет новых непрочитанных сообщений. Без следа / Without a Trace [S03] (2004) DVDRip

4 | 2

8.62 ГБ

В этой теме нет новых непрочитанных сообщений. Без следа / Without a Trace [S02] (2003) DVDRip

10 | 2

8.17 ГБ

В этой теме нет новых непрочитанных сообщений. Без следа / Without a Trace [S01] (2002) DVDRip

5 | 1

7.44 ГБ




Вы не можете начинать темы
Вы не можете отвечать на сообщения
Вы не можете редактировать свои сообщения
Вы не можете удалять свои сообщения
Вы не можете добавлять вложения

Перейти:  
Для Мосгорсуда, Роскомнадзора и рекламодателей: mosgorsud-torrent[собачка]yandex.ru
 Вход
ppkBB3cker v.2 © 2008-2014 @ PPK
[ Time : 0.058s | 16 Queries | GZIP : Off ]

Торрент трекер RUTOR.IN, Не можете зайти на rutor.org? Какой новый адрес рутор? Какое зеркало рутор? Не работает rutor.org и зеркала? Тогда наш торрент специально для вас. Rutor.in неофициальное зеркало rutor. В случае если у Вас заблокирован rutor или вдруг Вы не можете на него зайти, то Вы без труда сможете скачать бесплатно и без рекламы последние новинки кино, игр, сериалов и прочего у нас, на Rutor.in. Не нужно использовать прокси, чтобы зайти на рутор, достаточно воспользоваться нашим ресурсом. Все новые фильмы, игры, сериалы, книги и музыка за 2013 и 2014 годы через торрент бесплатно. Скачивайте фильмы в хорошем качестве, игры для пк, xbox, playstation без регистрации. У нас вы найдете новые Зарубежные сериалы и Русские сериалы 2013, 2014, 2015 годов. Оставайтесь с нами, качайте любимые фильмы, игры, сериалы, книги и музыку.