img image001 image001 image001 image001 image001 image001 image001 image001 image001 image001 image001 image001 image001 image001 image001

Planets Sun Sun Sun
Статистика раздачи
Автор: Снежана | Размер: 9.13 ГБ | Добавлен: 25 июл 2013
Раздают: 20    Качают: 4
Скачать торрент
Скачать торрент
Описание торрента

СообщениеДобавлено: 25 июл 2013 

#77

Информация о фильме
Название: Без следа
Оригинальное название: Without a Trace
Год выхода: 2008
Жанр: триллер, драма, криминал, детектив
Режиссер: Джон Шоуолтер, Скотт Уайт, Джефф Т. Томас
В ролях: Энтони ЛаПалья, Поппи Монтгомери, Энрике Маркиано, Эрик Клоуз, Марианн Жан-Баптист, Розелин Санчез, Ти Миллер, Джош Гомез, Адриана ДеМео, Эрик Скотт Гулд, Джессалин Гилсиг, Элизабет Беркли, Линн Уитфилд

О фильме:
Подразделение специального назначения, возглавляемое старшим агентом Джеком Мэлоуном, разыскивает исчезнувших людей, применяя последние достижения психологии. Команда Мэлоуна тщательно изучает все события жизни жертвы, постепенно выясняя, был ли человек похищен или намеренно скрывается, погиб ли он насильственной смертью или сам свел счеты с жизнью.

События дня исчезновения вплоть до минут выстраиваются в ряд согласно простому принципу: выяснив, кем является жертва, можно понять, где она сейчас находится. Однако, несмотря на самые активные поиски, агенты не всесильны и, конечно, им не чужды человеческие слабости. Иногда ошибки бумерангом возвращаются и преследуют их. Далеко не все подчиняется логике и идет по намеченному плану — часто события разворачиваются в непредсказуемом направлении.
Официальный сайт

Страна: США
Студия: CBS
Продолжительность: 24 серии ~ 00:42:00
Перевод: Профессиональный (многоголосый, закадровый) [НТВ] / Оригинал

Файл
Кодек: XviD / MP3
Качество: HDTVRip
Видео: XviD, 624x352 (16:9), 23.976 fps, 1 018 Kbps (0.193 bit/pixel)
Звук:
Аудио #1: MP3, 48.0 KHz, 2 ch, 128 Kbps, CBR [rus]
Аудио #2: MP3, 48.0 KHz, 2 ch, 132 Kbps, VBR [eng]

General
Complete name : without.a.trace.s07e01.hdtvrip.rus-ntv.eng.gravi-tv.avi
Format : AVI
Format/Info : Audio Video Interleave
File size : 391 MiB
Duration : 42mn 15s
Overall bit rate : 1 295 Kbps
Writing application : VirtualDubMod 1.6.0.0 SURROUND (build 2560/release)
Writing library : VirtualDubMod build 2560/release

Video
ID : 0
Format : MPEG-4 Visual
Format profile : Advanced Simple@L5
Format settings, BVOP : Yes
Format settings, QPel : No
Format settings, GMC : No warppoints
Format settings, Matrix : Default (H.263)
Muxing mode : Packed bitstream
Codec ID : XVID
Codec ID/Hint : XviD
Duration : 42mn 15s
Bit rate : 1 018 Kbps
Width : 624 pixels
Height : 352 pixels
Display aspect ratio : 16:9
Frame rate : 23.976 fps
Color space : YUV
Chroma subsampling : 4:2:0
Bit depth : 8 bits
Scan type : Progressive
Bits/(Pixel*Frame) : 0.193
Stream size : 308 MiB (79%)
Writing library : XviD 1.1.2 (UTC 2006-11-01)

Audio #1
ID : 1
Format : MPEG Audio
Format version : Version 1
Format profile : Layer 3
Mode : Joint stereo
Mode extension : MS Stereo
Codec ID : 55
Codec ID/Hint : MP3
Duration : 42mn 15s
Bit rate mode : Constant
Bit rate : 128 Kbps
Channel(s) : 2 channels
Sampling rate : 48.0 KHz
Stream size : 38.7 MiB (10%)
Alignment : Aligned on interleaves
Interleave, duration : 42 ms (1.00 video frame)
Interleave, preload duration : 504 ms

Audio #2
ID : 2
Format : MPEG Audio
Format version : Version 1
Format profile : Layer 3
Mode : Joint stereo
Mode extension : MS Stereo
Codec ID : 55
Codec ID/Hint : MP3
Duration : 42mn 15s
Bit rate mode : Variable
Bit rate : 132 Kbps
Channel(s) : 2 channels
Sampling rate : 48.0 KHz
Stream size : 40.0 MiB (10%)
Alignment : Aligned on interleaves
Interleave, duration : 24 ms (0.58 video frame)
Interleave, preload duration : 475 ms




   Похожие торренты   Торрент   Размер 
В этой теме нет новых непрочитанных сообщений. Без следа / Without a Trace (1983) HDTVRip | P

56 | 11

1.45 ГБ

В этой теме нет новых непрочитанных сообщений. Без следа / Without a Trace [S06] (2007) HDTVRip

24 | 3

6.81 ГБ

В этой теме нет новых непрочитанных сообщений. Без следа / Without a Trace [S05] (2006) HDTVRip

18 | 1

8.18 ГБ

В этой теме нет новых непрочитанных сообщений. Без следа / Without a Trace [S04] (2005) HDTVRip

4 | 1

9.13 ГБ

В этой теме нет новых непрочитанных сообщений. Без следа / Without a Trace [S03] (2004) DVDRip

4 | 2

8.62 ГБ

В этой теме нет новых непрочитанных сообщений. Без следа / Without a Trace [S02] (2003) DVDRip

10 | 2

8.17 ГБ

В этой теме нет новых непрочитанных сообщений. Без следа / Without a Trace [S01] (2002) DVDRip

5 | 1

7.44 ГБ




Вы не можете начинать темы
Вы не можете отвечать на сообщения
Вы не можете редактировать свои сообщения
Вы не можете удалять свои сообщения
Вы не можете добавлять вложения

Перейти:  
Для Мосгорсуда, Роскомнадзора и рекламодателей: mosgorsud-torrent[собачка]yandex.ru
 Вход
ppkBB3cker v.2 © 2008-2014 @ PPK
[ Time : 0.050s | 14 Queries | GZIP : Off ]

Торрент трекер RUTOR.IN, Не можете зайти на rutor.org? Какой новый адрес рутор? Какое зеркало рутор? Не работает rutor.org и зеркала? Тогда наш торрент специально для вас. Rutor.in неофициальное зеркало rutor. В случае если у Вас заблокирован rutor или вдруг Вы не можете на него зайти, то Вы без труда сможете скачать бесплатно и без рекламы последние новинки кино, игр, сериалов и прочего у нас, на Rutor.in. Не нужно использовать прокси, чтобы зайти на рутор, достаточно воспользоваться нашим ресурсом. Все новые фильмы, игры, сериалы, книги и музыка за 2013 и 2014 годы через торрент бесплатно. Скачивайте фильмы в хорошем качестве, игры для пк, xbox, playstation без регистрации. У нас вы найдете новые Зарубежные сериалы и Русские сериалы 2013, 2014, 2015 годов. Оставайтесь с нами, качайте любимые фильмы, игры, сериалы, книги и музыку.