img image001 image001 image001 image001 image001 image001 image001 image001 image001 image001 image001 image001 image001 image001 image001

Planets Sun Sun Sun
Статистика раздачи
Автор: Снежана | Размер: 3.2 ГБ | Добавлен: 25 июл 2013
Раздают: 0    Качают: 2
Скачать торрент
Скачать торрент
Описание торрента

СообщениеДобавлено: 25 июл 2013 

#77

Информация о фильме
Название: Связь / Прикосновение
Оригинальное название: Touch
Год выхода: 2012
Жанр: Драма
Режиссер: Френсис Лоуренс
В ролях: Кифер Сазерленд, Карен Шенас-Дэвид, Девид де Латур, Джуди Эчавез, Масси Фурлан, Шак Гача, Дэнни Гловер, Ник Ходэли, Марк Иванир...

О фильме:
Он потерял любимую жену, и остался один воспитывать своего сына - аутиста. Все свое время он тратит на то, чтобы понять особое мышление своего сына и наладить с ним контакт, но до сих пор его попытки не приносили должного успеха, его ребенок оставался таким же молчаливым и замкнутым. Но в один момент Мартин понимает что его сын обладает особым даром гения - он предвидит события будущего, точки в которых действия одного человека могут подействовать на жизни других. Но выражает он свои видения в цифрах, расшифровать которые и предстоит его отцу, помешав тем самым случиться трагедии.

Страна: США
Продолжительность: ~00:50:00 серия
Перевод: Любительский (многоголосый закадровый) - DeepVoiceTV

Файл
Кодек: H.264
Качество: WEB-DL 720p
Видео: 1280 x 720, 23.976 fps, 3 938 kbps, 0.178 bit/pixel
Звук: Rus/Eng: 48 kHz, 6 ch, 384 kbps
Субтитры: русские вшитые (на места без перевода)

Семпл


Общее
Уникальный идентификатор : 253788057826253591733288355828290432961 (0xBEEDCD507F63A7BBA413706943DE2FC1)
Полное имя : D:DeepVoiceTVHDПрикосновение (Touch)Touch.s1e1.WEB-DL.Rus.Eng.DeepVoiceTV.mkv
Формат : Matroska
Версия формата : Version 2
Размер файла : 1,72 Гбайт
Продолжительность : 50 м.
Общий поток : 4892 Кбит/сек
Дата кодирования : UTC 2012-01-28 11:50:34
Программа кодирования : mkvmerge v5.1.0 ('And so it goes') built on Nov 28 2011 23:58:28
Библиотека кодирования : libebml v1.2.3 + libmatroska v1.3.0

Видео
Идентификатор : 1
Формат : AVC
Формат/Информация : Advanced Video Codec
Профиль формата : High@L3.1
Параметр CABAC формата : Нет
Параметр ReFrames формата : 2 кадра
Режим смешивания : Header stripping
Идентификатор кодека : V_MPEG4/ISO/AVC
Продолжительность : 50 м.
Битрейт : 4027 Кбит/сек
Ширина : 1280 пикселей
Высота : 720 пикселей
Соотношение сторон : 16:9
Частота кадров : 23,976 кадра/сек
Цветовое пространство : YUV
Субдискретизация насыщенности : 4:2:0
Битовая глубина : 8 бит
Тип развёртки : Прогрессивная
Бит/(Пиксели*Кадры) : 0.182
Размер потока : 1,41 Гбайт (82%)
Заголовок : Touch - Season 1, Episode 1: Pilot
Язык : English
Default : Да
Forced : Нет
Основные цвета : BT.709-5, BT.1361, IEC 61966-2-4, SMPTE RP177
Характеристики трансфера : BT.709-5, BT.1361
Коэффициенты матрицы : BT.709-5, BT.1361, IEC 61966-2-4 709, SMPTE RP177

Аудио #1
Идентификатор : 2
Формат : AC-3
Формат/Информация : Audio Coding 3
Расширение режима : CM (complete main)
Режим смешивания : Header stripping
Идентификатор кодека : A_AC3
Продолжительность : 50 м.
Вид битрейта : Постоянный
Битрейт : 384 Кбит/сек
Каналы : 6 каналов
Расположение каналов : Front: L C R, Side: L R, LFE
Частота : 48,0 КГц
Битовая глубина : 16 бит
Метод сжатия : С потерями
Размер потока : 138 Мбайт (8%)
Заголовок : DeepVoiceTV
Язык : Russian
Default : Да
Forced : Нет

Аудио #2
Идентификатор : 3
Формат : AC-3
Формат/Информация : Audio Coding 3
Расширение режима : CM (complete main)
Режим смешивания : Header stripping
Идентификатор кодека : A_AC3
Продолжительность : 50 м.
Вид битрейта : Постоянный
Битрейт : 384 Кбит/сек
Каналы : 6 каналов
Расположение каналов : Front: L C R, Side: L R, LFE
Частота : 48,0 КГц
Битовая глубина : 16 бит
Метод сжатия : С потерями
Размер потока : 138 Мбайт (8%)
Заголовок : Eng
Язык : English
Default : Нет
Forced : Нет

Текст
Идентификатор : 4
Формат : UTF-8
Идентификатор кодека : S_TEXT/UTF8
Идентификатор кодека/Информация : UTF-8 Plain Text
Заголовок : NotaBenoid
Язык : Russian
Default : Да
Forced : Нет



   Похожие торренты   Торрент   Размер 
В этой теме нет новых непрочитанных сообщений. Связь / Прикосновение / Touch [01x01-02] (2012) WEB-DLRip | DeepVoiceTV

0 | 2

1004.07 МБ

В этой теме нет новых непрочитанных сообщений. Связь / Прикосновение / Контакт / Touch [S01] (2012) WEB-DL 720p от HDClub | LostFilm

7 | 7

19.39 ГБ

В этой теме нет новых непрочитанных сообщений. Связь / Прикосновение / Контакт / Touch [S01] (2012) WEB-DL 720p от HDClub | Первый канал

4 | 4

17.87 ГБ

В этой теме нет новых непрочитанных сообщений. Связь / Прикосновение / Контакт / Touch [s01] (2012) WEB-DLRip 720p от Boerboel-frol | LostFilm

6 | 4

17.99 ГБ

В этой теме нет новых непрочитанных сообщений. Связь / Прикосновение / Контакт / Touch [S01] (2012) WEB-DLRip | LostFilm

67 | 8

6.35 ГБ

В этой теме нет новых непрочитанных сообщений. Связь / Прикосновение / Контакт / Touch [S01-02] (2012-2013) WEB-DLRip l LostFilm

19 | 8

13.58 ГБ

В этой теме нет новых непрочитанных сообщений. Связь / Прикосновение / Контакт / Touch [S01] (2012) WEB-DLRip от Scarabey | LostFilm

1 | 3

9.7 ГБ




Вы не можете начинать темы
Вы не можете отвечать на сообщения
Вы не можете редактировать свои сообщения
Вы не можете удалять свои сообщения
Вы не можете добавлять вложения

Перейти:  
Для Мосгорсуда, Роскомнадзора и рекламодателей: mosgorsud-torrent[собачка]yandex.ru
 Вход
ppkBB3cker v.2 © 2008-2014 @ PPK
[ Time : 0.048s | 16 Queries | GZIP : Off ]

cron