img image001 image001 image001 image001 image001 image001 image001 image001 image001 image001 image001 image001 image001 image001 image001

Planets Sun Sun Sun
Статистика раздачи
Автор: Снежана | Размер: 33.18 ГБ | Добавлен: 25 июл 2013
Раздают: 157    Качают: 70
Скачать торрент
Скачать торрент
Описание торрента

СообщениеДобавлено: 25 июл 2013 

#77

Информация о фильме
Название: Менталист
Оригинальное название: The Mentalist
Год выхода: 2010
Жанр: детектив
Режиссер: Крис Лонг, Дэвид Баррет, Дэвид Наттер
В ролях: Саймон Бейкер, Робин Танни, Тим Кенг, Овайн Йомэн, Аманда Риджетти, Грегори Итцин, Бодхи Элфмэн, Винн Эверетт, Аластер Маккензи, Крис Таллман

О фильме:
Патрик Джейн — детектив и независимый консультант из Калифорнийского Бюро Расследований (КБР), он использует свои отточенные, как лезвие, навыки наблюдения для раскрытия тяжких преступлений. В самом Бюро Джейн известен за частые нарушения протокола, а также за его звездное прошлое: он работал медиумом, однако теперь сам признает, что симулировал паранормальные способности. Роль Джейна в раскрытии целой серии загадочных преступлений высоко ценится коллегами. Но суровый старший агент Тереза Лисбон против того, чтоб Джейн работал с ее отрядом, и то вынужденно признает его успехи, то критикует его за театральность, нарциссизм и отсутствие границ.

Страна: США
Продолжительность: ~00:43:00
Перевод: Профессиональный (полное дублирование) ТВ3

Файл
Кодек: XviD
Качество: WEB-DL 720р
Видео: AVC at 4 042 Kbps 1280 x 720 (1.778) at 23.976 fps 0.183 bit/pixel
Звук: Rus/Eng: AC-3 at 192 Kbps 2 channels, 48.0 KHz

Семпл


General
Unique ID : 227559234605447919312591715238587729519 (0xAB32507CD6088AF7980FDF26F575066F)
Complete name : Z:The.Mentalist.s03.rus.eng.720p.web-dlThe.Mentalist.s03e01.rus.eng.720p.web-dl.mkv
Format : Matroska
File size : 1.42 GiB
Duration : 43mn 1s
Overall bit rate : 4 712 Kbps
Encoded date : UTC 2012-03-07 15:08:44
Writing application : mkvmerge v4.5.0 ('Speed of Light') сборка от Feb 1 2011 02:10:32
Writing library : libebml v1.2.0 + libmatroska v1.1.0

Video
ID : 1
Format : AVC
Format/Info : Advanced Video Codec
Format profile : High@L3.1
Format settings, CABAC : No
Format settings, ReFrames : 2 frames
Codec ID : V_MPEG4/ISO/AVC
Duration : 43mn 1s
Bit rate : 4 042 Kbps
Width : 1 280 pixels
Height : 720 pixels
Display aspect ratio : 16:9
Frame rate : 23.976 fps
Color space : YUV
Chroma subsampling : 4:2:0
Bit depth : 8 bits
Scan type : Progressive
Bits/(Pixel*Frame) : 0.183
Stream size : 1.21 GiB (86%)
Language : English
Color primaries : BT.709-5, BT.1361, IEC 61966-2-4, SMPTE RP177
Transfer characteristics : BT.709-5, BT.1361
Matrix coefficients : BT.709-5, BT.1361, IEC 61966-2-4 709, SMPTE RP177

Audio #1
ID : 2
Format : AC-3
Format/Info : Audio Coding 3
Mode extension : CM (complete main)
Codec ID : A_AC3
Duration : 43mn 1s
Bit rate mode : Constant
Bit rate : 192 Kbps
Channel(s) : 2 channels
Channel positions : Front: L R
Sampling rate : 48.0 KHz
Bit depth : 16 bits
Compression mode : Lossy
Stream size : 59.1 MiB (4%)
Title : Дубляж (ТВ3)
Language : Russian

Audio #2
ID : 3
Format : AC-3
Format/Info : Audio Coding 3
Mode extension : CM (complete main)
Codec ID : A_AC3
Duration : 43mn 1s
Bit rate mode : Constant
Bit rate : 384 Kbps
Channel(s) : 6 channels
Channel positions : Front: L C R, Side: L R, LFE
Sampling rate : 48.0 KHz
Bit depth : 16 bits
Compression mode : Lossy
Stream size : 118 MiB (8%)
Title : Оригинал
Language : English


1. Открыть торрент.
2. Снять галки с тех файлов торрента, которые мы не хотим закачивать. Оставляем только на нужных нам файлах (файле).
3. Нажать О.К.

Раздача ведётся путём добавления новых серий; при каждом добавлении создаётся новый торрент. Чтобы начать докачку новой серии, пользователям необходимо сделать следующее:
(1) остановить скачивание,
(2) удалить старый торрент у себя из клиента (старые серии удалять не надо),
(3) скачать новый торрент и запустить его у себя в клиенте вместо старого, при этом указать клиенту путь в старую папку куда и должно происходить скачивание новых серий.

Ваш клиент при этом должен произвести хеширование (проверку) старой папки (если не производит сам - помогите ему сделать это), и будет докачивать только те серии которых у вас ещё нет. Старые серии при этом не удаляются, а продолжают раздаваться!

Eсли вы уже удалили старые серии, то предотвратить повторную закачку старых серий можно, отжав галочку в соответствующих местах при запуске нового торрента. По возможности, желательно не удалять старые серии как можно дольше чтобы релизёр не столько продолжал раздавать старые серии, а смог сконцентрироваться на новых.


Добавлены 22-24 серии: 30.03.2012



   Похожие торренты   Торрент   Размер 
В этой теме нет новых непрочитанных сообщений. Менталист / The Mentalist Менталист / The Mentalist [S02] (2009-2010) HDTVRip от Gravi-TV

21 | 14

8.96 ГБ

В этой теме нет новых непрочитанных сообщений. Менталист / The Mentalist [S03] (2010) WEB-DLRip | ТВ3

237 | 92

11.76 ГБ

В этой теме нет новых непрочитанных сообщений. Менталист / The Mentalist [S03] (2010) WEB-DLRip | Gravi-TV

23 | 13

9.38 ГБ

В этой теме нет новых непрочитанных сообщений. Менталист / The Mentalist [S02] (2009-2010) WEB-DL 720p | ТВ3

204 | 62

31.83 ГБ

В этой теме нет новых непрочитанных сообщений. Менталист / The Mentalist [S02] (2009-2010) DVDRip | ТВ3

393 | 82

8.72 ГБ

В этой теме нет новых непрочитанных сообщений. Менталист / The Mentalist [S03] (2010-2011) HDTVRip от napaBo3uk

92 | 26

8.45 ГБ

В этой теме нет новых непрочитанных сообщений. Менталист / The Mentalist [S02] (2009) WEB-DLRip | ТВ3

160 | 47

16.55 ГБ




Вы не можете начинать темы
Вы не можете отвечать на сообщения
Вы не можете редактировать свои сообщения
Вы не можете удалять свои сообщения
Вы не можете добавлять вложения

Перейти:  
Для Мосгорсуда, Роскомнадзора и рекламодателей: mosgorsud-torrent[собачка]yandex.ru
 Вход
ppkBB3cker v.2 © 2008-2014 @ PPK
[ Time : 0.060s | 15 Queries | GZIP : Off ]

Торрент трекер RUTOR.IN, Не можете зайти на rutor.org? Какой новый адрес рутор? Какое зеркало рутор? Не работает rutor.org и зеркала? Тогда наш торрент специально для вас. Rutor.in неофициальное зеркало rutor. В случае если у Вас заблокирован rutor или вдруг Вы не можете на него зайти, то Вы без труда сможете скачать бесплатно и без рекламы последние новинки кино, игр, сериалов и прочего у нас, на Rutor.in. Не нужно использовать прокси, чтобы зайти на рутор, достаточно воспользоваться нашим ресурсом. Все новые фильмы, игры, сериалы, книги и музыка за 2013 и 2014 годы через торрент бесплатно. Скачивайте фильмы в хорошем качестве, игры для пк, xbox, playstation без регистрации. У нас вы найдете новые Зарубежные сериалы и Русские сериалы 2013, 2014, 2015 годов. Оставайтесь с нами, качайте любимые фильмы, игры, сериалы, книги и музыку.
cron