img image001 image001 image001 image001 image001 image001 image001 image001 image001 image001 image001 image001 image001 image001 image001

Planets Sun Sun Sun
Статистика раздачи
Автор: Снежана | Размер: 19.25 ГБ | Добавлен: 25 июл 2013
Раздают: 28    Качают: 34
Скачать торрент
Скачать торрент
Описание торрента

СообщениеДобавлено: 25 июл 2013 



Информация о фильме
Название: Алькатрас
Оригинальное название: Alcatraz
Год выхода: 2012
Жанр: Фантастика, боевик, триллер, детектив
Режиссер: Брэд Андерсон, Джек Бендер, Дэнни Кэннон
В ролях: Сара Джонс, Сэм Нил, Хорхе Гарсиа, Джонатан Койн, Сэмюэл Патрик Чу, Джеффри Пирс, Дэвид Хофлин, Joe Egender, Джинэнн Гуссен, Джеймс Бэмфорд

О фильме:
История доктора Диего Сото, лучшего в мире знатока самой знаменитой американской тюрьмы «Алькатрас», расположенной на острове у берегов Сан-Франциско. Сото предстоит разгадать тайну, связанную с загадочным исчезновением заключенных и охранников «Алькатраса» много лет назад и неожиданным их появлением в уже недействующей тюрьме (она была закрыта в 1963 году) в наши дни.

Страна: США, Канада
Студия: Alcatraz Films, Bad Robot
Продолжительность: 11 x ~ 00:43:00, 1 x ~ 01:28:00
Перевод: Профессиональный, многоголосый (LostFilm)

Файл
Кодек: h.264
Качество: WEB-DL 720p
Видео: MPEG-4 AVC, ~ 3993 Кбит/с, 1280х720
Звук: Русский (AC3, 6 ch, 384 Кбит/с), английский (AC3, 6 ch, 384 Кбит/с)
Субтитры:
Русские, английские

General
Unique ID : 204442214478798953672782182895452723859 (0x99CE236610EE61CD8E4D6CAEB6F89A93)
Complete name : D:Alkatras.(1.sezon.13.serii.iz.13).2012.x264.WEB-DL.720pAlkatras.(1.sezon.07.seriya.iz.13).2012.x264.WEB-DL.720p.mkv
Format : Matroska
Format version : Version 2
File size : 1.49 GiB
Duration : 43mn 57s
Overall bit rate : 4 858 Kbps
Movie name : Alcatraz [Season 1] (2012) - Release for HDCLUB
Encoded date : UTC 2012-02-24 17:10:24
Writing application : mkvmerge v4.8.0 ('I Got The...') сборка от May 24 2011 03:12:58
Writing library : libebml v1.2.0 + libmatroska v1.1.0

Video
ID : 1
Format : AVC
Format/Info : Advanced Video Codec
Format profile : High@L3.1
Format settings, CABAC : No
Format settings, ReFrames : 2 frames
Codec ID : V_MPEG4/ISO/AVC
Duration : 43mn 57s
Bit rate : 3 993 Kbps
Width : 1 280 pixels
Height : 720 pixels
Display aspect ratio : 16:9
Frame rate : 23.976 fps
Color space : YUV
Chroma subsampling : 4:2:0
Bit depth : 8 bits
Scan type : Progressive
Bits/(Pixel*Frame) : 0.181
Stream size : 1.23 GiB (82%)
Title : Alcatraz S01E07: Johnny McKee / Джонни МакКи - Release for HDCLUB
Language : English
Default : Yes
Forced : No
Color primaries : BT.709-5, BT.1361, IEC 61966-2-4, SMPTE RP177
Transfer characteristics : BT.709-5, BT.1361
Matrix coefficients : BT.709-5, BT.1361, IEC 61966-2-4 709, SMPTE RP177

Audio #1
ID : 2
Format : AC-3
Format/Info : Audio Coding 3
Mode extension : CM (complete main)
Codec ID : A_AC3
Duration : 43mn 57s
Bit rate mode : Constant
Bit rate : 384 Kbps
Channel(s) : 6 channels
Channel positions : Front: L C R, Side: L R, LFE
Sampling rate : 48.0 KHz
Bit depth : 16 bits
Compression mode : Lossy
Stream size : 121 MiB (8%)
Title : LostFilm.TV
Language : Russian
Default : Yes
Forced : No

Audio #2
ID : 3
Format : AC-3
Format/Info : Audio Coding 3
Mode extension : CM (complete main)
Codec ID : A_AC3
Duration : 43mn 57s
Bit rate mode : Constant
Bit rate : 384 Kbps
Channel(s) : 6 channels
Channel positions : Front: L C R, Side: L R, LFE
Sampling rate : 48.0 KHz
Bit depth : 16 bits
Compression mode : Lossy
Stream size : 121 MiB (8%)
Language : English
Default : No
Forced : No

Text #1
ID : 4
Format : UTF-8
Codec ID : S_TEXT/UTF8
Codec ID/Info : UTF-8 Plain Text
Language : Russian
Default : No
Forced : No

Text #2
ID : 5
Format : UTF-8
Codec ID : S_TEXT/UTF8
Codec ID/Info : UTF-8 Plain Text
Language : English
Default : No
Forced : No


Семпл



Релиз от:



   Похожие торренты   Торрент   Размер 
В этой теме нет новых непрочитанных сообщений. Алькатрас / Alcatraz [S01] (2012) HDTVRip от Scarabey | LostFilm

54 | 10

9.74 ГБ

В этой теме нет новых непрочитанных сообщений. Алькатрас / Alcatraz [01х01-13 из 13] (2012) WEB-DLRip | LostFilm

2 | 3

6.39 ГБ

В этой теме нет новых непрочитанных сообщений. Алькатрас / Alcatraz [S01] (2012) WEB-DLRip | D

9 | 6

7.92 ГБ

В этой теме нет новых непрочитанных сообщений. Алькатрас / Alcatraz [01х01-13 из 13] (2012) WEB-DLRip | Кубик в Кубе

15 | 27

5.82 ГБ

В этой теме нет новых непрочитанных сообщений. Алькатрас / Alcatraz (2010) PC

2 | 4

1.17 ГБ

В этой теме нет новых непрочитанных сообщений. Алькатрас / Alcatraz (2010) PC | RePack

71 | 4

448.37 МБ

В этой теме нет новых непрочитанных сообщений. Алькатрас / Alcatraz (2010) PC | RePack от Fenixx

7 | 2

329.11 МБ




Вы не можете начинать темы
Вы не можете отвечать на сообщения
Вы не можете редактировать свои сообщения
Вы не можете удалять свои сообщения
Вы не можете добавлять вложения

Перейти:  
Для Мосгорсуда, Роскомнадзора и рекламодателей: mosgorsud-torrent[собачка]yandex.ru
 Вход
ppkBB3cker v.2 © 2008-2014 @ PPK
[ Time : 1.165s | 14 Queries | GZIP : On ]

Торрент трекер RUTOR.IN, Не можете зайти на rutor.org? Какой новый адрес рутор? Какое зеркало рутор? Не работает rutor.org и зеркала? Тогда наш торрент специально для вас. Rutor.in неофициальное зеркало rutor. В случае если у Вас заблокирован rutor или вдруг Вы не можете на него зайти, то Вы без труда сможете скачать бесплатно и без рекламы последние новинки кино, игр, сериалов и прочего у нас, на Rutor.in. Не нужно использовать прокси, чтобы зайти на рутор, достаточно воспользоваться нашим ресурсом. Все новые фильмы, игры, сериалы, книги и музыка за 2013 и 2014 годы через торрент бесплатно. Скачивайте фильмы в хорошем качестве, игры для пк, xbox, playstation без регистрации. У нас вы найдете новые Зарубежные сериалы и Русские сериалы 2013, 2014, 2015 годов. Оставайтесь с нами, качайте любимые фильмы, игры, сериалы, книги и музыку.