img image001 image001 image001 image001 image001 image001 image001 image001 image001 image001 image001 image001 image001 image001 image001

Planets Sun Sun Sun
Статистика раздачи
Автор: Снежана | Размер: 16.97 ГБ | Добавлен: 25 июл 2013
Раздают: 0    Качают: 2
Скачать торрент
Скачать торрент
Описание торрента

СообщениеДобавлено: 25 июл 2013 

#77

Информация о фильме
Название: Быть Человеком
Оригинальное название: Being Human US
Год выхода: 2012
Жанр: Мистика, Ужасы
Режиссер: Адам Кэйн, Паоло Барзмен, Чарльз Бинами
В ролях: Сэм Уитвер, Миган Рат, Сэм Хантингтон, Джанпаоло Венута, Марк Пеллегрино, Винсент Леклерк, Сара Аллен, Кристен Хагер, Анджела Галуппо, Элисон Лодер, и др.

О сериале:
Новый американский сериал - увлекательная истории о трех существах, которых мы, люди, привыкли воспринимать с опаской. Однако удивительная троица: вампир, оборотень и привидение, - проживающая в одном доме, едва ли способна обидеть даже ребенка. Всеми силами герои стремятся выйти за границы тех образов, которыми их «наградили» люди. Вампир не злоупотребляет кровавыми напитками, оборотень с ужасом и нескрываемым душевным волнением ожидает наступления полнолуния, приведение - вообще примерный семьянин и хранитель домашнего очага, пугающийся каждого шороха. Помимо бесконечного сокрытия собственной противоестественности, друзья умело решают самые что ни на есть земные задачи. Они ведут расследования. Умелое разрешение детективных загадок позволяет приятелям сглаживать сложности двойной жизни. «Быть человеком» - это жанровое ассорти из мистики и детектива, в лучших традициях качественного сериала, когда каждая серия до последней минуты держит зрителя в состоянии острого напряжения.


Страна: США
Продолжительность: ~00:44:00
Перевод: Профессиональный (многоголосый, закадровый) "LostFilm"

Файл
Кодек: MPEG-4 AVC
Качество: WEB-DL 720p
Видео: MPEG-4 AVC / 3983 kbps / 1280:720p / 23.976 fps / 16:9 / 0.180 bit/pixel / High Level 3.1
Звук:
Rus: Dolby Digital 2.0 / 48 kHz / 192 kbps
Eng: Dolby Digital 5.1 / 48 kHz / 384 kbps

Семпл


Общее
Уникальный идентификатор : 195473216203610546940801064216156252038 (0x930EC5A47E54FCB197FF8A2E1CB52786)
Полное имя : E:Быть ЧеловекомBeing Human s02 (LostFilm)Being Human s02e01.mkv
Формат : Matroska
Размер файла : 1,42 Гбайт
Продолжительность : 43 м.
Общий поток : 4652 Кбит/сек
Дата кодирования : UTC 2012-01-21 16:46:16
Программа кодирования : mkvmerge v4.0.0 ('The Stars were mine') сборка от Jun 6 2010 16:18:42
Библиотека кодирования : libebml v1.0.0 + libmatroska v1.0.0

Видео
Идентификатор : 1
Формат : AVC
Формат/Информация : Advanced Video Codec
Профиль формата : High@L3.1
Параметр CABAC формата : Нет
Параметр ReFrames формата : 2 кадры
Идентификатор кодека : V_MPEG4/ISO/AVC
Продолжительность : 43 м.
Битрейт : 3983 Кбит/сек
Ширина : 1280 пикс.
Высота : 720 пикс.
Соотношение сторон : 16:9
Частота кадров : 23,976 кадр/сек
Цветовое пространство : YUV
Подвыборка цветности : 4:2:0
Битовая глубина : 8 бит
Тип развёртки : Прогрессивная
Бит/(Пиксели*Кадры) : 0.180
Размер потока : 1,22 Гбайт (86%)
Язык : English
Основные цвета : BT.709-5, BT.1361, IEC 61966-2-4, SMPTE RP177
Характеристики трансфера : BT.709-5, BT.1361
Коэффициенты матрицы : BT.709-5, BT.1361, IEC 61966-2-4 709, SMPTE RP177

Аудио #1
Идентификатор : 2
Формат : AC-3
Формат/Информация : Audio Coding 3
Расширение режима : CM (complete main)
Идентификатор кодека : A_AC3
Продолжительность : 43 м.
Вид битрейта : Постоянный
Битрейт : 192 Кбит/сек
Канал(ы) : 2 канала(ов)
Расположение каналов : Front: L R
Частота : 48,0 КГц
Битовая глубина : 16 бит
Метод сжатия : С потерями
Размер потока : 60,0 Мбайт (4%)
Язык : Russian

Аудио #2
Идентификатор : 3
Формат : AC-3
Формат/Информация : Audio Coding 3
Расширение режима : CM (complete main)
Идентификатор кодека : A_AC3
Продолжительность : 43 м.
Вид битрейта : Постоянный
Битрейт : 384 Кбит/сек
Канал(ы) : 6 канала(ов)
Расположение каналов : Front: L C R, Side: L R, LFE
Частота : 48,0 КГц
Битовая глубина : 16 бит
Метод сжатия : С потерями
Размер потока : 120 Мбайт (8%)
Язык : English


Релиз от:

1. Открыть торрент.
2. Снять галки с тех файлов торрента, которые мы не хотим закачивать. Оставляем только на нужных нам файлах (файле).
3. Нажать О.К.

Раздача ведётся путём добавления новых серий; при каждом добавлении создаётся новый торрент. Чтобы начать докачку новой серии, пользователям необходимо сделать следующее:
(1) остановить скачивание,
(2) удалить старый торрент у себя из клиента (старые серии удалять не надо),
(3) скачать новый торрент и запустить его у себя в клиенте вместо старого, при этом указать клиенту путь в старую папку куда и должно происходить скачивание новых серий.

Ваш клиент при этом должен произвести хеширование (проверку) старой папки (если не производит сам - помогите ему сделать это), и будет докачивать только те серии которых у вас ещё нет. Старые серии при этом не удаляются, а продолжают раздаваться!

Eсли вы уже удалили старые серии, то предотвратить повторную закачку старых серий можно, отжав галочку в соответствующих местах при запуске нового торрента. По возможности, желательно не удалять старые серии как можно дольше чтобы релизёр не столько продолжал раздавать старые серии, а смог сконцентрироваться на новых.


Добавлена 12 серия: 08.04.2012



   Похожие торренты   Торрент   Размер 
В этой теме нет новых непрочитанных сообщений. Быть человеком / Being Human [S02] (2012) WEB-DLRip от LostFilm

4 | 8

6.36 ГБ

В этой теме нет новых непрочитанных сообщений. Быть Человеком / Being Human [S01] (2011) WEB-DL 720p | LostFilm

2 | 3

18.67 ГБ

В этой теме нет новых непрочитанных сообщений. Быть человеком / Being Human [S01] (2011) WEB-DLRip | LostFilm

22 | 16

6.06 ГБ

В этой теме нет новых непрочитанных сообщений. Быть человеком / Being Human [S03] (2013) WEB-DLRip | LostFilm

9 | 9

7.14 ГБ

В этой теме нет новых непрочитанных сообщений. Быть человеком / Being Human [S01-04] (2011-2014) WEB-DLRip | LostFilm

28 | 155

27.14 ГБ

В этой теме нет новых непрочитанных сообщений. Быть Человеком / Being Human (USA) [S04] (2014) HDTVRip, WEB-DLRip | LostFilm

74 | 140

7.57 ГБ

В этой теме нет новых непрочитанных сообщений. Быть человеком / Being Human [S01-03] (2011-2013) WEB-DLRip | LostFilm

0 | 2

19.57 ГБ




Вы не можете начинать темы
Вы не можете отвечать на сообщения
Вы не можете редактировать свои сообщения
Вы не можете удалять свои сообщения
Вы не можете добавлять вложения

Перейти:  
Для Мосгорсуда, Роскомнадзора и рекламодателей: mosgorsud-torrent[собачка]yandex.ru
 Вход
ppkBB3cker v.2 © 2008-2014 @ PPK
[ Time : 0.134s | 16 Queries | GZIP : Off ]

Торрент трекер RUTOR.IN, Не можете зайти на rutor.org? Какой новый адрес рутор? Какое зеркало рутор? Не работает rutor.org и зеркала? Тогда наш торрент специально для вас. Rutor.in неофициальное зеркало rutor. В случае если у Вас заблокирован rutor или вдруг Вы не можете на него зайти, то Вы без труда сможете скачать бесплатно и без рекламы последние новинки кино, игр, сериалов и прочего у нас, на Rutor.in. Не нужно использовать прокси, чтобы зайти на рутор, достаточно воспользоваться нашим ресурсом. Все новые фильмы, игры, сериалы, книги и музыка за 2013 и 2014 годы через торрент бесплатно. Скачивайте фильмы в хорошем качестве, игры для пк, xbox, playstation без регистрации. У нас вы найдете новые Зарубежные сериалы и Русские сериалы 2013, 2014, 2015 годов. Оставайтесь с нами, качайте любимые фильмы, игры, сериалы, книги и музыку.
cron