img image001 image001 image001 image001 image001 image001 image001 image001 image001 image001 image001 image001 image001 image001 image001

Planets Sun Sun Sun
Статистика раздачи
Автор: Снежана | Размер: 1.46 ГБ | Добавлен: 25 июл 2013
Раздают: 4    Качают: 3
Скачать торрент
Скачать торрент
Описание торрента

СообщениеДобавлено: 25 июл 2013 

#77

Информация о фильме
Название: Лучшее лето нашей жизни
Год выхода: 2011
Жанр: мелодрама
Режиссер: Светлана Музыченко
В ролях: Анна Здор, Владимир Фекленко, Александр Арсентьев, Ольга Волкова, Александр Ефимов, Светлана Колпакова, Сергей Фролов, Марианна Шульц, Ольга Онищенко, Ольга Кузьмина

О фильме:
Чтобы покорить столицу, бывшей провинциалке Маше пришлось смириться с потерей любимого. Жизнь ее изрядно побила, но Маша не сдалась. Она еще молода и привлекательна, самостоятельно воспитывает 18-летнюю дочь, ее карьера на телевидении сложилась удачно… А вот в личной жизни все «не очень»: после того первого предательства искренней юношеской любви ее сердце окаменело. Правда, иногда она встречается со своим начальником, но он безнадежно женат.

Однажды Маша снимает репортаж про работу пожарных, после которого в ее жизнь врывается нежданная любовь. Павел совершенно не похож на тех мужчин, которые попадались на ее пути прежде, и ее устоявшаяся жизнь теперь изменится до неузнаваемости. Как в фильме «Москва слезам не верит», их чувства подвергнутся серьезным испытаниям, но в итоге любовь, конечно, преодолеет все невзгоды.

Страна: Россия
Студия: Про100 Фильм, Lizard Cinema Trade
Продолжительность: 4 x ~ 00:45:00
Перевод: Не требуется

Файл
Кодек: XviD / MP3
Качество: DVDRip
Видео: XviD, 640x368 (16:9), 25.000 fps, 921 Kbps (0.156 bit/pixel)
Звук: MP3, 48.0 KHz, 2 ch, 128 Kbps, CBR (Russian)

General
Complete name : E:Luchshee.leto.nashej.zhizni_DVDRip.2011.01-04iz04_[Rutor.org]Luchshee.leto.nashej.zhizni_DVDRip.2011.01iz04_[Rutor.org].avi
Format : AVI
Format/Info : Audio Video Interleave
File size : 372 MiB
Duration : 49mn 14s
Overall bit rate : 1 056 Kbps
Writing application : VirtualDubMod 1.5.4.1 (build 2178/release)
Writing library : VirtualDubMod build 2178/release

Video
ID : 0
Format : MPEG-4 Visual
Format profile : Advanced Simple@L5
Format settings, BVOP : 1
Format settings, QPel : No
Format settings, GMC : No warppoints
Format settings, Matrix : Custom
Codec ID : XVID
Codec ID/Hint : XviD
Duration : 49mn 14s
Bit rate : 921 Kbps
Width : 640 pixels
Height : 368 pixels
Display aspect ratio : 1.739
Frame rate : 25.000 fps
Color space : YUV
Chroma subsampling : 4:2:0
Bit depth : 8 bits
Scan type : Progressive
Compression mode : Lossy
Bits/(Pixel*Frame) : 0.156
Stream size : 324 MiB (87%)
Writing library : XviD 64

Audio
ID : 1
Format : MPEG Audio
Format version : Version 1
Format profile : Layer 3
Mode : Joint stereo
Mode extension : MS Stereo
Codec ID : 55
Codec ID/Hint : MP3
Duration : 49mn 14s
Bit rate mode : Constant
Bit rate : 128 Kbps
Channel(s) : 2 channels
Sampling rate : 48.0 KHz
Compression mode : Lossy
Stream size : 45.1 MiB (12%)
Alignment : Aligned on interleaves
Interleave, duration : 80 ms (2.00 video frames)
Interleave, preload duration : 504 ms
Writing library : LAME3.99r
Encoding settings : -m j -V 4 -q 2 -lowpass 17 -b 128
Language : Russian




   Похожие торренты   Торрент   Размер 
В этой теме нет новых непрочитанных сообщений. Лучшее лето нашей жизни [01-04 из 4] (2011) DVDRip | Лицензия

5 | 1

2.74 ГБ

В этой теме нет новых непрочитанных сообщений. Лучшее лето нашей жизни [01-04 серии из 04] (2011) DVD9

3 | 4

7.51 ГБ

В этой теме нет новых непрочитанных сообщений. В одно прекрасное лето / Лето на ранчо Койот / Coyote Summer (1995) DVDRip | L1

68 | 32

1.46 ГБ

В этой теме нет новых непрочитанных сообщений. То лето страсти / Un ete brulant (2011) DVDRip | Лицензия

124 | 3

1.37 ГБ

В этой теме нет новых непрочитанных сообщений. То лето страсти / Un ete brulant (2011) DVDRip | Лицензия

4 | 4

701.71 МБ

В этой теме нет новых непрочитанных сообщений. Сборник - Хит-парад Top Hit Ru [клипы - лето] (2011) DVDRip

178 | 14

1.34 ГБ

В этой теме нет новых непрочитанных сообщений. Окно в лето / Fenster zum Sommer (2011) DVDRip AVC от Киномагия l P2

6 | 1

1.36 ГБ




Вы не можете начинать темы
Вы не можете отвечать на сообщения
Вы не можете редактировать свои сообщения
Вы не можете удалять свои сообщения
Вы не можете добавлять вложения

Перейти:  
Для Мосгорсуда, Роскомнадзора и рекламодателей: mosgorsud-torrent[собачка]yandex.ru
 Вход
ppkBB3cker v.2 © 2008-2014 @ PPK
[ Time : 0.041s | 14 Queries | GZIP : Off ]

Торрент трекер RUTOR.IN, Не можете зайти на rutor.org? Какой новый адрес рутор? Какое зеркало рутор? Не работает rutor.org и зеркала? Тогда наш торрент специально для вас. Rutor.in неофициальное зеркало rutor. В случае если у Вас заблокирован rutor или вдруг Вы не можете на него зайти, то Вы без труда сможете скачать бесплатно и без рекламы последние новинки кино, игр, сериалов и прочего у нас, на Rutor.in. Не нужно использовать прокси, чтобы зайти на рутор, достаточно воспользоваться нашим ресурсом. Все новые фильмы, игры, сериалы, книги и музыка за 2013 и 2014 годы через торрент бесплатно. Скачивайте фильмы в хорошем качестве, игры для пк, xbox, playstation без регистрации. У нас вы найдете новые Зарубежные сериалы и Русские сериалы 2013, 2014, 2015 годов. Оставайтесь с нами, качайте любимые фильмы, игры, сериалы, книги и музыку.