img image001 image001 image001 image001 image001 image001 image001 image001 image001 image001 image001 image001 image001 image001 image001

Planets Sun Sun Sun
Статистика раздачи
Автор: Снежана | Размер: 7.24 ГБ | Добавлен: 25 июл 2013
Раздают: 155    Качают: 5
Скачать торрент
Скачать торрент
Описание торрента

СообщениеДобавлено: 25 июл 2013 


Информация
Название: Титаник
Оригинальное название: Titanic
Год выхода: 2012
Жанр: драма
Режиссер: Джон Джонс
В ролях: Питер МакДональд, Стивен Вэддингтон, Рут Брэдли, Глен Блэкхолл, Джорджия МакКатчен, Антонио Магро, Дженна-Луиз Коулмэн, Стивен Кэмпбелл Мур, Ллойд Хатчинсон, Пердита Викс

О фильме:
Новый проект «Титаник» представляет собой версию трагических событий, которые имели место в северной Атлантике в 1912 году. Катастрофа Титаника самое известное и масштабное кораблекрушение в истории мореплавания. Корабль, построенный в 1912 год, отправился в свое первое и последнее плавание из английского Саутгемптона в Нью-Йорк. Это был крупнейший на тот момент пассажирский лайнер, на борту которого легко размещались более двух тысяч человек. Конструкторы утверждали, что благодаря своей конструкции корабль практически непотопляем. На борту присутствовали как миллионеры, известные актеры и аристократы, так и простые люди, которые ехали на нижних палубах в тесноте. С момента отплытия и до катастрофы жизнь на корабле протекала в обычном для того времени ритме. К услугам богатых пассажиров были все блага цивилизации, а простые люди были вынуждены почти все время проводить в душных каютах нижней палубы. И только когда корабль столкнулся с айсбергом и начал тонуть, стало ясно, что перед лицом неминуемой смерти все равны — и миллионеры, и простые рабочие…



Выпущено: США, Канада, Великобритания, Венгрия / Deep Indigo Productions, ITV Productions, Look Out Point
Продолжительность: 4 x 00:46:00
Озвучивание: Профессиональное (многоголосое) [лицензия]

Файл
Формат: MKV
Качество: BDRip 720p [HDChina]
Видео: 5143 kb/s, 1280x720
Аудио: Russian: AC3, 384 kb/s (6 ch)
Субтитры: Russian
Скачать: Сэмпл


Общее
Уникальный идентификатор : 234406219651645498170629488423117159154 (0xB058FEE9FB37AD3685577E1452C67AF2)
Полное имя : E:СериалыTitanik.2012.BDRip.720pTitanic.2012.E01.BDRip.720p.mkv
Формат : Matroska
Версия формата : Version 2
Размер файла : 1,82 Гбайт
Продолжительность : 47 м.
Общий поток : 5527 Кбит/сек
Название фильма : IRONCLUB
Дата кодирования : UTC 2012-04-18 04:26:16
Программа кодирования : mkvmerge v5.4.0 ('Piper') built on Mar 10 2012 13:34:39
Библиотека кодирования : libebml v1.2.3 + libmatroska v1.3.0

Видео
Идентификатор : 1
Формат : AVC
Формат/Информация : Advanced Video Codec
Профиль формата : High@L4.1
Параметр CABAC формата : Да
Параметр ReFrames формата : 9 кадров
Идентификатор кодека : V_MPEG4/ISO/AVC
Продолжительность : 47 м.
Битрейт : 5143 Кбит/сек
Ширина : 1280 пикселей
Высота : 720 пикселей
Соотношение сторон : 16:9
Частота кадров : 23,976 кадра/сек
Цветовое пространство : YUV
Субдискретизация насыщенности : 4:2:0
Битовая глубина : 8 бит
Тип развёртки : Прогрессивная
Бит/(Пиксели*Кадры) : 0.233
Размер потока : 1,65 Гбайт (91%)
Заголовок : Titanic.2012.E01.720p.BluRay.x264.DTS-HDChina
Библиотека кодирования : x264 core 120 r2164 da19765
Настройки программы : cabac=1 / ref=9 / deblock=1:-3:-3 / analyse=0x3:0x133 / me=umh / subme=10 / psy=1 / psy_rd=1.00:0.00 / mixed_ref=1 / me_range=32 / chroma_me=1 / trellis=2 / 8x8dct=1 / cqm=0 / deadzone=21,11 / fast_pskip=1 / chroma_qp_offset=-2 / threads=12 / sliced_threads=0 / nr=0 / decimate=0 / interlaced=0 / bluray_compat=0 / constrained_intra=0 / bframes=7 / b_pyramid=2 / b_adapt=2 / b_bias=0 / direct=3 / weightb=1 / open_gop=0 / weightp=2 / keyint=250 / keyint_min=23 / scenecut=40 / intra_refresh=0 / rc_lookahead=60 / rc=2pass / mbtree=0 / bitrate=5143 / ratetol=1.0 / qcomp=0.60 / qpmin=0 / qpmax=69 / qpstep=4 / cplxblur=20.0 / qblur=0.5 / vbv_maxrate=30000 / vbv_bufsize=30000 / nal_hrd=none / ip_ratio=1.50 / pb_ratio=1.30 / aq=1:1.00
Язык : English
Default : Да
Forced : Нет

Аудио
Идентификатор : 2
Формат : AC-3
Формат/Информация : Audio Coding 3
Расширение режима : CM (complete main)
Параметр Endianness формата : Big
Идентификатор кодека : A_AC3
Продолжительность : 47 м.
Вид битрейта : Постоянный
Битрейт : 384 Кбит/сек
Каналы : 6 каналов
Расположение каналов : Front: L C R, Side: L R, LFE
Частота : 48,0 КГц
Битовая глубина : 16 бит
Метод сжатия : С потерями
Размер потока : 129 Мбайт (7%)
Заголовок : MVO R5
Язык : Russian
Default : Да
Forced : Нет

Текст
Идентификатор : 3
Формат : UTF-8
Идентификатор кодека : S_TEXT/UTF8
Идентификатор кодека/Информация : UTF-8 Plain Text
Заголовок : Full
Язык : Russian
Default : Нет
Forced : Нет




   Похожие торренты   Торрент   Размер 
В этой теме нет новых непрочитанных сообщений. Титаник: Кровь и сталь / Titanic: Blood and Steel [S01] (2012) BDRip 720p | BaibaKo

1 | 7

27.34 ГБ

В этой теме нет новых непрочитанных сообщений. Титаник / Titanic [01-04 из 04] (2012) BDRip | Лицензия

24 | 13

1.75 ГБ

В этой теме нет новых непрочитанных сообщений. Титаник / Titanic (1953) BDRip 720p

5 | 5

3.54 ГБ

В этой теме нет новых непрочитанных сообщений. Титаник / Titanic (1997) BDRip 720p | D

23 | 16

7.76 ГБ

В этой теме нет новых непрочитанных сообщений. Титаник / Titanic (1997) BDRip 720p

48 | 11

10.47 ГБ

В этой теме нет новых непрочитанных сообщений. Титаник / Titanic (1997) BDRip 720p | 60 FPS

802 | 98

8.76 ГБ

В этой теме нет новых непрочитанных сообщений. Титаник / Titanic [01-04 из 04] (2012) BDRip | КПК от Kino@rena

9 | 9

620.99 МБ




Вы не можете начинать темы
Вы не можете отвечать на сообщения
Вы не можете редактировать свои сообщения
Вы не можете удалять свои сообщения
Вы не можете добавлять вложения

Перейти:  
Для Мосгорсуда, Роскомнадзора и рекламодателей: mosgorsud-torrent[собачка]yandex.ru
 Вход
ppkBB3cker v.2 © 2008-2014 @ PPK
[ Time : 0.042s | 16 Queries | GZIP : Off ]

Торрент трекер RUTOR.IN, Не можете зайти на rutor.org? Какой новый адрес рутор? Какое зеркало рутор? Не работает rutor.org и зеркала? Тогда наш торрент специально для вас. Rutor.in неофициальное зеркало rutor. В случае если у Вас заблокирован rutor или вдруг Вы не можете на него зайти, то Вы без труда сможете скачать бесплатно и без рекламы последние новинки кино, игр, сериалов и прочего у нас, на Rutor.in. Не нужно использовать прокси, чтобы зайти на рутор, достаточно воспользоваться нашим ресурсом. Все новые фильмы, игры, сериалы, книги и музыка за 2013 и 2014 годы через торрент бесплатно. Скачивайте фильмы в хорошем качестве, игры для пк, xbox, playstation без регистрации. У нас вы найдете новые Зарубежные сериалы и Русские сериалы 2013, 2014, 2015 годов. Оставайтесь с нами, качайте любимые фильмы, игры, сериалы, книги и музыку.
cron