img image001 image001 image001 image001 image001 image001 image001 image001 image001 image001 image001 image001 image001 image001 image001

Planets Sun Sun Sun
Статистика раздачи
Автор: Снежана | Размер: 16.01 ГБ | Добавлен: 25 июл 2013
Раздают: 23    Качают: 18
Скачать торрент
Скачать торрент
Описание торрента

СообщениеДобавлено: 25 июл 2013 

#77

Информация о фильме
Название: Дневники Вампира
Оригинальное название: The Vampire Diaries
Год выхода: 2011-2012
Жанр: ужасы, фэнтези, мелодрама, драма
Режиссер: Маркос Сига, Дж. Миллер Тобин, Кевин Брэй
В ролях: Нина Добрев (Nina Dobrev), Пол Уэсли (Paul Wesley), Иен Сомерхалдер (Ian Somerhalder), Стивен Р. МакКуин (Steven R. McQueen), Катерина Грэхэм (Katerina Graham), Кэндис Аккола (Candice Accola)


Елена — «золотая» девочка, она привыкла, что мальчики стоят перед ней на коленях.
Стефан — темноволосый красавец, он никогда не смотрит на солнце и прячет глаза за темными очками. Он — единственный, на кого чары Елены не действуют, хотя он и пытается защитить ее от мрачных тайн своего прошлого.
Дэймон — его сексуальный и жестокий брат, он всю жизнь посвятил мести Стефану, когда-то предавшего его. Сейчас ему нужна Елена и он пойдет на все, чтобы добиться ее тела. И заполучить ее душу.

Дневники вампира: история прекрасной Елены, по воле рока ставшей причиной смертельной схватки братьев-вампиров.




01: Pilot / Пилот
02: Night of the Comet / Ночь кометы
03: Friday Night Bites / Вечер пятницы кусается
04: Family Ties / Семейные узы
05: You're Undead to Me / Для меня ты вампир
06: Lost Girls / Потерянные девушки
07: Haunted / Преследуемые
08: 162 Candles / 162 свечи
09: History Repeating / Повторение истории
10: The Turning Point / Переломный момент
11: Bloodlines / Кровные узы
12: Unpleasantville / Нехороший город
13: Children of the Damned / Дети проклятых
14: Fool Me Once / Обманув однажды...
15: A Few Good Men / Несколько хороших людей
16: There Goes the Neighborhood / По соседству
17: Let the Right One In / Впусти нужного человека
18: Under Control / Под контролем
19: Miss Mystic Falls / Мисс Мистик Фолс
20: Blood Brothers / Братья по крови
21: Isobel / Изабель
22: Founder's Day / День основателей

Страна: США
Продолжительность: 00:45:00 серия!
Продолжительность: ~00:41:00
Перевод: Профессиональный (многоголосый, закадровый) | Студия "Лостфильм"
Субтитры: Английские

Файл
Качество: BDRip-AVC (источник: by lostrator / BD-Remux / 1080p) сэмпл
Размер: 22 x 745 Mb (1/6 DVD5)
Формат: mkv
Видео кодек: x264
Аудио кодек: AC3
Видео: MPEG4 Video (H264) 1024x576 (16:9) 23.976fps ~2070kbps (0.145bpp)
Аудио:
Russian: 48 kHz, AC3 Dolby Digital, 3/2 (L,C,R,l,r) + LFE ch, ~384.00kbps | Студия "Лостфильм"
Субтитры: English
Чаптеры: оригинальные с Blu-ray

Код:
Общее
Уникальный идентификатор : 196618138357709944555445677109619379927 (0x93EB46A9B946757099406FD20C2ECED7)
Полное имя : The.Vampire.Diaries.S01E04.BDRip-AVC.x264.AC3.(Lostfilm).2009.mkv
Формат : Matroska
Версия формата : Version 2
Размер файла : 745 Мбайт
Продолжительность : 42 м.
Общий поток : 2447 Кбит/сек
Название фильма : The Vampire Diaries (2009) S01E04 – Семейные узы / Family Ties
Дата кодирования : UTC 2012-04-06 17:42:36
Программа кодирования : mkvmerge v5.4.0 ('Piper') built on Mar 10 2012 13:34:39
Библиотека кодирования : libebml v1.2.3 + libmatroska v1.3.0

Видео
Идентификатор : 1
Формат : AVC
Формат/Информация : Advanced Video Codec
Профиль формата : High@L4.1
Параметр CABAC формата : Да
Параметр ReFrames формата : 8 кадров
Идентификатор кодека : V_MPEG4/ISO/AVC
Продолжительность : 42 м.
Битрейт : 2014 Кбит/сек
Номинальный битрейт : 2319 Кбит/сек
Ширина : 1024 пикселя
Высота : 576 пикселей
Соотношение сторон : 16:9
Частота кадров : 23,976 кадра/сек
Цветовое пространство : YUV
Субдискретизация насыщенности : 4:2:0
Битовая глубина : 8 бит
Тип развёртки : Прогрессивная
Бит/(Пиксели*Кадры) : 0.142
Размер потока : 614 Мбайт (82%)
Заголовок : 1024x576 (16:9) 23.976fps ~2070kbps (0.145bpp); BDRip-AVC
Библиотека кодирования : x264 core 92 r1510 33d382a
Настройки программы : cabac=1 / ref=8 / deblock=1:-2:-1 / analyse=0x3:0x113 / me=umh / subme=9 / psy=1 / psy_rd=1.00:0.20 / mixed_ref=1 / me_range=26 / chroma_me=1 / trellis=2 / 8x8dct=1 / cqm=0 / deadzone=21,11 / fast_pskip=0 / chroma_qp_offset=-3 / threads=3 / sliced_threads=0 / nr=0 / decimate=0 / interlaced=0 / constrained_intra=0 / bframes=8 / b_pyramid=2 / b_adapt=2 / b_bias=0 / direct=3 / wpredb=1 / wpredp=2 / keyint=250 / keyint_min=25 / scenecut=40 / intra_refresh=0 / rc_lookahead=60 / rc=2pass / mbtree=1 / bitrate=2319 / ratetol=1.0 / qcomp=0.60 / qpmin=10 / qpmax=51 / qpstep=4 / cplxblur=20.0 / qblur=0.5 / ip_ratio=1.40 / aq=1:1.00
Язык : English
Default : Да
Forced : Нет

Аудио
Идентификатор : 2
Формат : AC-3
Формат/Информация : Audio Coding 3
Расширение режима : CM (complete main)
Параметр Endianness формата : Big
Идентификатор кодека : A_AC3
Продолжительность : 42 м.
Вид битрейта : Постоянный
Битрейт : 384 Кбит/сек
Каналы : 6 каналов
Расположение каналов : Front: L C R, Side: L R, LFE
Частота : 48,0 КГц
Битовая глубина : 16 бит
Метод сжатия : С потерями
Размер потока : 117 Мбайт (16%)
Заголовок : 48 kHz, AC3 Dolby Digital, 3/2 (L,C,R,l,r) + LFE ch, ~384.00kbps [MVO LostFilm]
Язык : Russian
Default : Да
Forced : Нет

Текст
Идентификатор : 3
Формат : UTF-8
Идентификатор кодека : S_TEXT/UTF8
Идентификатор кодека/Информация : UTF-8 Plain Text
Заголовок : English, SRT
Язык : English
Default : Нет
Forced : Нет

Меню
00:00:00.000 : en:00:00:00.000
00:00:51.926 : en:00:00:51.926
00:04:06.454 : en:00:04:06.454
00:13:43.113 : en:00:13:43.113
00:19:12.693 : en:00:19:12.693
00:24:30.886 : en:00:24:30.886
00:32:25.735 : en:00:32:25.735
00:36:36.152 : en:00:36:36.152
00:41:59.516 : en:00:41:59.516




Релиз от:



   Похожие торренты   Торрент   Размер 
В этой теме нет новых непрочитанных сообщений. Дневники Вампира, 7 сезон 1-10 серии / The Vampire Diaries [LostFilm] (Крис Грисмер) [2015, мистика, фэнтези, мелодрама, драма, WEB-DLRip, P] / Дневники вампира

117 | 282

3.83 ГБ

В этой теме нет новых непрочитанных сообщений. Дневники вампира / The Vampire Diaries [S04] (2012) WEB-DLRip | LostFilm

742 | 197

8.31 ГБ

В этой теме нет новых непрочитанных сообщений. Дневники Вампира / The Vampire Diaries [S03] (2011-2012) WEB-DL 720p | LostFilm

41 | 22

28.9 ГБ

В этой теме нет новых непрочитанных сообщений. Дневники вампира / The Vampire Diaries [04x01-22] (2012) WEB-DLRip | LostFilm

0 | 1

7.95 ГБ

В этой теме нет новых непрочитанных сообщений. Дневники вампира / The Vampire Diaries [S04] (2012-2013) WEB-DL 720p | LostFilm

35 | 15

32.8 ГБ

В этой теме нет новых непрочитанных сообщений. Дневники Вампира / The Vampire Diaries [S03] (2011-2012) WEB-DLRip | LostFilm

196 | 50

8.01 ГБ

В этой теме нет новых непрочитанных сообщений. Дневники вампира / The Vampire Diaries [S01-04] (2009-2013) HDRip, WEB-DLRip от Generalfilm | КПК | LostFilm

12 | 19

16.54 ГБ




Вы не можете начинать темы
Вы не можете отвечать на сообщения
Вы не можете редактировать свои сообщения
Вы не можете удалять свои сообщения
Вы не можете добавлять вложения

Перейти:  
Для Мосгорсуда, Роскомнадзора и рекламодателей: mosgorsud-torrent[собачка]yandex.ru
 Вход
ppkBB3cker v.2 © 2008-2014 @ PPK
[ Time : 2.324s | 15 Queries | GZIP : On ]

Торрент трекер RUTOR.IN, Не можете зайти на rutor.org? Какой новый адрес рутор? Какое зеркало рутор? Не работает rutor.org и зеркала? Тогда наш торрент специально для вас. Rutor.in неофициальное зеркало rutor. В случае если у Вас заблокирован rutor или вдруг Вы не можете на него зайти, то Вы без труда сможете скачать бесплатно и без рекламы последние новинки кино, игр, сериалов и прочего у нас, на Rutor.in. Не нужно использовать прокси, чтобы зайти на рутор, достаточно воспользоваться нашим ресурсом. Все новые фильмы, игры, сериалы, книги и музыка за 2013 и 2014 годы через торрент бесплатно. Скачивайте фильмы в хорошем качестве, игры для пк, xbox, playstation без регистрации. У нас вы найдете новые Зарубежные сериалы и Русские сериалы 2013, 2014, 2015 годов. Оставайтесь с нами, качайте любимые фильмы, игры, сериалы, книги и музыку.