img image001 image001 image001 image001 image001 image001 image001 image001 image001 image001 image001 image001 image001 image001 image001

Planets Sun Sun Sun
Статистика раздачи
Автор: Снежана | Размер: 8.29 ГБ | Добавлен: 25 июл 2013
Раздают: 557    Качают: 139
Скачать торрент
Скачать торрент
Описание торрента

СообщениеДобавлено: 25 июл 2013 



Информация о фильме
Название: Бомбила
Оригинальное название: Бомбила
Год выхода: 2011
Жанр: боевик, комедия, криминал
Режиссер: Александр Калугин
В ролях: Дмитрий Миллер, Наталия Антонова, Максим Щёголев, Анна Банщикова, Пелагея Максимова, Егор Баринов, Александр Яцко, Сергей Векслер, Юрий Нифонтов, Сергей Никоненко, Валерий Баринов, Игорь Верник, Константин Желдин, Вероника Лысакова, Ксения Березина, Дмитрий Слинкин, Константин Тополага, Юрий Шерстнев, Олег Комаров, Роман Кириллов, Александр Калугин, Мария Ильюхина, Юрий Кузьменков, Татьяна Сидоренко, Вадим Медведев, Дальвин Щербаков, Алан Догузов, Анатолий Морозов, Алексей Малашкин, Александр Коржов, Максим Пинскер, Юлия Ковалевская, Евгений Сафронов, Александр Шувалов

О фильме:
Бывший спецназовец Артем Горохов обвиняется в убийстве крупного бизнесмена. Никто не верит, что Артем — обыкновенный «бомбила», а не супер-киллер. Артему грозит пожизненное заключение.
Но неунывающий Артем способен найти нестандартный выход из любой ситуации. Главное оружие Артема — отменное чувство юмора, которое помогает ему выстоять в сложных ситуациях, сбежать из СИЗО и разоблачить планы воротил наркобизнеса. Артема преследуют и банда наркоторговцев, и оперативники из отдела специальных расследований. Но догнать таксиста не так-то просто.



Выпущено: Россия / компания «Мостелефильм»
Продолжительность: 16 x ~00:45:00
Озвучивание: Оригинальное [Лицензия]

Файл
Формат: AVI
Качество: DVDRip (Исходник - 2 ДВД-9)
Видео: 720x400, XviD, ~1450 kbps, 25.0 fps
Аудио: Dolby AC3, 192 Kb/s, 2 ch
Субтитры: нет


Общее
Полное имя : D:КИНОсериалыBombila_2012_16seriyBombila.09.(2012).DVDRip.avi
Формат : AVI
Формат/Информация : Audio Video Interleave
Размер файла : 529 Мбайт
Продолжительность : 46 м.
Общий поток : 1607 Кбит/сек
Библиотека кодирования : VirtualDub build 34753/release

Видео
Идентификатор : 0
Формат : MPEG-4 Visual
Профиль формата : Advanced Simple@L5
Параметр BVOP формата : 2
Параметр QPel формата : Нет
Параметр GMC формата : Без точки перехода
Параметр матрицы формата : Default (H.263)
Режим смешивания : Сжатый битовый поток
Идентификатор кодека : XVID
Идентификатор кодека/Подсказка : XviD
Продолжительность : 46 м.
Битрейт : 1406 Кбит/сек
Ширина : 720 пикселей
Высота : 400 пикселей
Соотношение сторон : 16:9
Частота кадров : 25,000 кадров/сек
Цветовое пространство : YUV
Субдискретизация насыщенности : 4:2:0
Битовая глубина : 8 бит
Тип развёртки : Чересстрочная
Порядок развёртки : Верхнее поле первое
Метод сжатия : С потерями
Бит/(Пиксели*Кадры) : 0.195
Размер потока : 463 Мбайт (87%)
Библиотека кодирования : XviD 64

Аудио
Идентификатор : 1
Формат : AC-3
Формат/Информация : Audio Coding 3
Расширение режима : CM (complete main)
Параметр Endianness формата : Big
Идентификатор кодека : 2000
Продолжительность : 46 м.
Вид битрейта : Постоянный
Битрейт : 192 Кбит/сек
Каналы : 2 канала
Расположение каналов : Front: L R
Частота : 48,0 КГц
Битовая глубина : 16 бит
Метод сжатия : С потерями
Размер потока : 63,2 Мбайт (12%)
Выравнивание : Соединение по промежуткам
Продолжительность промежутка : 40 мс. (1,00 видеокадр)
Время предзагрузки промежутка : 512 мс.



   Похожие торренты   Торрент   Размер 
В этой теме нет новых непрочитанных сообщений. Бомбила [01-16] (2011) SATRip

196 | 84

7.19 ГБ

В этой теме нет новых непрочитанных сообщений. Бомбила [01x01-16 из 16] (2011) DVBRip.AVC

160 | 31

13.83 ГБ

В этой теме нет новых непрочитанных сообщений. Бомбила. Продолжение [01-24 из 24] (2013) SATRip от Files-x

760 | 281

12.88 ГБ

В этой теме нет новых непрочитанных сообщений. Rush - Time Machine 2011: Live in Cleveland (2011) DVDRip от Generalfilm

9 | 3

1.37 ГБ

В этой теме нет новых непрочитанных сообщений. Дрифт / Video Option vol. 213 - D1 CHAMPIONS in Centrair [26/11/2011] (2011) DVDRip

3 | 1

1.17 ГБ

В этой теме нет новых непрочитанных сообщений. B.B. King - Live at the Royal Albert Hall 2011 (2011) DVDRip-AVC

5 | 3

1.78 ГБ

В этой теме нет новых непрочитанных сообщений. Дрифт / Video Option Vol.209 - 2011 D1GP 2-й этап / Tokyo Drift (2011) DVDRip

0 | 5

1.08 ГБ




Вы не можете начинать темы
Вы не можете отвечать на сообщения
Вы не можете редактировать свои сообщения
Вы не можете удалять свои сообщения
Вы не можете добавлять вложения

Перейти:  
Для Мосгорсуда, Роскомнадзора и рекламодателей: mosgorsud-torrent[собачка]yandex.ru
 Вход
ppkBB3cker v.2 © 2008-2014 @ PPK
[ Time : 0.056s | 14 Queries | GZIP : Off ]

Торрент трекер RUTOR.IN, Не можете зайти на rutor.org? Какой новый адрес рутор? Какое зеркало рутор? Не работает rutor.org и зеркала? Тогда наш торрент специально для вас. Rutor.in неофициальное зеркало rutor. В случае если у Вас заблокирован rutor или вдруг Вы не можете на него зайти, то Вы без труда сможете скачать бесплатно и без рекламы последние новинки кино, игр, сериалов и прочего у нас, на Rutor.in. Не нужно использовать прокси, чтобы зайти на рутор, достаточно воспользоваться нашим ресурсом. Все новые фильмы, игры, сериалы, книги и музыка за 2013 и 2014 годы через торрент бесплатно. Скачивайте фильмы в хорошем качестве, игры для пк, xbox, playstation без регистрации. У нас вы найдете новые Зарубежные сериалы и Русские сериалы 2013, 2014, 2015 годов. Оставайтесь с нами, качайте любимые фильмы, игры, сериалы, книги и музыку.