img image001 image001 image001 image001 image001 image001 image001 image001 image001 image001 image001 image001 image001 image001 image001

Planets Sun Sun Sun
Статистика раздачи
Автор: Снежана | Размер: 1.37 ГБ | Добавлен: 25 июл 2013
Раздают: 63    Качают: 8
Скачать торрент
Скачать торрент
Описание торрента

СообщениеДобавлено: 25 июл 2013 



Информация о фильме
Название: Поединки. Правительство США против Рудольфа Абеля
Год выхода: 2009
Жанр: Художественно - документальный
Режиссер: Владимир Нахабцев
В ролях: Ю.Беляев, М.Вашут, П.Мотлох, Т.Ганак, Я.Ревай, М.Хрубешова, Т.Креймр, Т.Некудова, Д.Колинс

О фильме:
Фильм основан на реальных событиях и свидетельствах очевидцев и создан в новом жанре художественно-документальной драмы, который становится все более популярным на современном телевидении.Почему советский разведчик, настоящая фамилия которого — Фишер, при аресте назвался Абелем? Что думал об Абеле директор ФБР Гувер? И почему в кабинете Кеннеди висел его портрет работы Абеля? Обо всем этом рассказывается в фильме. Это захватывающий рассказ о чести и предательстве, о верности долгу и силе духа, который не могут сломить самые страшные обстоятельства.В фильме воспроизведены подлинные методы вербовки агентов, передачи и получения секретной информации, практиковавшиеся в группе Абеля, что превращает фильм в настоящий шпионский детектив. Центральное место в фильме занимает арест разведчика летним утром 1957 года в Нью-Йорке. Зрители узнают о том, какому невероятному психологическому и физическому давлению подвергался Абель на допросах в следственной тюрьме. Вся мощь могущественного государства обрушилась на одного человека. И все же Абель выстоял, сумел подняться над страшными обстоятельствами жизни, заставив уважать себя не только следователей и адвоката, но и американских уголовников, с которыми он отбывал наказание в федеральной тюрьме.Воспоминаниями о легендарном разведчике впервые поделится генерал-майор Юрий Дроздов — бывший руководитель управления нелегальной разведки КГБ СССР, человек, принимавший непосредственное участие в подготовке операции по «обмену» Абеля на американского летчика Пауэрса.

General
Complete name : SHA.protiv.Abelja.2009.XviD.SATRip.avi
Format : AVI
Format/Info : Audio Video Interleave
File size : 699 MiB
Duration : 52mn 4s
Overall bit rate : 1 876 Kbps
Writing application : VirtualDubMod 1.5.10.2 (build 2540/release)
Writing library : VirtualDubMod build 2540/release
Video #0
ID : 0
Format : MPEG-4 Visual
Format profile : Advanced Simple@L5
Format settings, BVOP : 2
Format settings, QPel : No
Format settings, GMC : No warppoints
Format settings, Matrix : Default (MPEG)
Muxing mode : Packed bitstream
Codec ID : XVID
Codec ID/Hint : XviD
Duration : 52mn 4s
Bit rate : 1 483 Kbps
Width : 720 pixels
Height : 392 pixels
Display aspect ratio : 16:9
Frame rate : 25.000 fps
Color space : YUV
Chroma subsampling : 4:2:0
Bit depth : 8 bits
Scan type : Progressive
Compression mode : Lossy
Bits/(Pixel*Frame) : 0.210
Stream size : 552 MiB (79%)
Writing library : XviD 1.2.1 (UTC 2008-12-04)
Audio #1
ID : 1
Format : AC-3
Format/Info : Audio Coding 3
Mode extension : CM (complete main)
Codec ID : 2000
Duration : 52mn 4s
Bit rate mode : Constant
Bit rate : 384 Kbps
Channel(s) : 2 channels
Channel positions : Front: L R
Sampling rate : 48.0 KHz
Bit depth : 16 bits
Compression mode : Lossy
Stream size : 143 MiB (20%)
Alignment : Split accross interleaves
Interleave, duration : 40 ms (1.00 video frame)
Interleave, preload duration : 500 ms



Страна: Россия
Студия: Студия "Артель"
Продолжительность: 2 х 00:52:04
Язык: Русский

Файл
Кодек: XviD
Качество: SATRip
Видео: 720x392, ~ 1485 kbps, 25 fps
Звук: AC3, 384кб/с, 2 канала

Семпл

, , , , ,



   Похожие торренты   Торрент   Размер 
В этой теме нет новых непрочитанных сообщений. XXXI Летние Олимпийские Игры. Рио-де-Жанейро (Бразилия). Греко-римская борьба. До 66кг и до 98кг. Предварительные поединки, 1/8, 1/4, 1/2 финала, утешительные поединки, поединки за 3-е место. Финалы [16.08] (2016) IPTVRip-AVC

16 | 14

4.95 ГБ

В этой теме нет новых непрочитанных сообщений. XXXI Летние Олимпийские Игры. Рио-де-Жанейро (Бразилия). Вольная борьба. Женщины до 48, 58, 69 кг. Предварительные поединки, 1/8, 1/4, 1/2 финала, поединки за 3-е место. Финалы. Награждение [17.08] (2016) IPTVRip-AVC

11 | 8

8.58 ГБ

В этой теме нет новых непрочитанных сообщений. XXXI Летние Олимпийские Игры. Рио-де-Жанейро (Бразилия). Греко-римская борьба. Предварительные поединки, 1/8, 1/4, 1/2 финала, утешительные поединки, за 3-е место. Финалы. Награждение [15.08] (2016) IPTVRip-AVC

8 | 5

7.13 ГБ

В этой теме нет новых непрочитанных сообщений. Гены против нас (2009) SATRip

1 | 22

751.61 МБ

В этой теме нет новых непрочитанных сообщений. Поединки. Испытание смертью (2010) SATRip

140 | 12

1 ГБ

В этой теме нет новых непрочитанных сообщений. Поединки. Выбор агента Блейка (2011) SATRip

135 | 6

1.09 ГБ

В этой теме нет новых непрочитанных сообщений. Поединки. Исключение из правил (2012) SATRip от Odyzic и MyWorldFilm

126 | 3

1.38 ГБ




Вы не можете начинать темы
Вы не можете отвечать на сообщения
Вы не можете редактировать свои сообщения
Вы не можете удалять свои сообщения
Вы не можете добавлять вложения

Перейти:  
Для Мосгорсуда, Роскомнадзора и рекламодателей: mosgorsud-torrent[собачка]yandex.ru
 Вход
ppkBB3cker v.2 © 2008-2014 @ PPK
[ Time : 0.088s | 15 Queries | GZIP : On ]

Торрент трекер RUTOR.IN, Не можете зайти на rutor.org? Какой новый адрес рутор? Какое зеркало рутор? Не работает rutor.org и зеркала? Тогда наш торрент специально для вас. Rutor.in неофициальное зеркало rutor. В случае если у Вас заблокирован rutor или вдруг Вы не можете на него зайти, то Вы без труда сможете скачать бесплатно и без рекламы последние новинки кино, игр, сериалов и прочего у нас, на Rutor.in. Не нужно использовать прокси, чтобы зайти на рутор, достаточно воспользоваться нашим ресурсом. Все новые фильмы, игры, сериалы, книги и музыка за 2013 и 2014 годы через торрент бесплатно. Скачивайте фильмы в хорошем качестве, игры для пк, xbox, playstation без регистрации. У нас вы найдете новые Зарубежные сериалы и Русские сериалы 2013, 2014, 2015 годов. Оставайтесь с нами, качайте любимые фильмы, игры, сериалы, книги и музыку.