img image001 image001 image001 image001 image001 image001 image001 image001 image001 image001 image001 image001 image001 image001 image001

Planets Sun Sun Sun
Статистика раздачи
Автор: Снежана | Размер: 14.09 ГБ | Добавлен: 25 июл 2013
Раздают: 234    Качают: 114
Скачать торрент
Скачать торрент
Описание торрента

СообщениеДобавлено: 25 июл 2013 



Год выпуска: 2008
Жанр: драма, история
Режиссер: Андрей Кравчук
В ролях: Константин Хабенский, Елизавета Боярская, Сергей Безруков, Анна Ковальчук, Владислав Ветров, Егор Бероев, Ришар Боринже, Николай Бурляев, Виктор Вержбицкий, Федор Бондарчук, Александр Лазарев мл., Игорь Савочкин, Кирилл Плетнев, Олег Фомин, Виктор Запорожский, Анатолий Пашинин, Николай Реутов, Владимир Чуприков, Александр Арефьев, Евгений Березовский, Александр Рапопорт

Описание:
Фильм, рассказывающий о жизни и любви выдающегося боевого офицера военно-морского флота, полярного исследователя, а затем ставшего адмиралом, верховного правителя России — Александра Васильевича Колчака и Анны Тимиревой. События разворачиваются в период 1916—1920 годов на фоне крушения Российской империи, двух революций и Гражданской войны.



Продолжительность: 10х~50мин
Выпущено: Россия
Русские субтитры: нет
Качество: BDRip-AVC
Формат: MKV
Видео: MPEG4 Video (H264), 1024x480 at 23.976 fps, ~3500 kbps
Аудио: 48 kHz, AC-3, 6ch, 448 kbps


Общее
Уникальный идентификатор : 168348648403719580577546155723716462494 (0x7EA6C532C2870C1E037BA147C20E879E)
Полное имя : E:СериалыAdmiral_(2008)_BDRip_AVC_(10 sery)Admiral.08.(2008).BDRip_avc.mkv
Формат : Matroska
Версия формата : Version 2
Размер файла : 1,38 Гбайт
Продолжительность : 50 м.
Режим общего битрейта : Переменный
Общий поток : 3955 Кбит/сек
Программа кодирования : Lavf51.12.1
Библиотека кодирования : Lavf51.12.1

Видео
Идентификатор : 1
Формат : AVC
Формат/Информация : Advanced Video Codec
Профиль формата : Baseline@L3.1
Параметр CABAC формата : Нет
Параметр ReFrames формата : 1 кадр
Параметр GOP формата : M=1, N=12
Идентификатор кодека : V_MPEG4/ISO/AVC
Продолжительность : 50 м.
Вид битрейта : Переменный
Битрейт : 3428 Кбит/сек
Максимальный битрейт : 5250 Кбит/сек
Ширина : 1024 пикселя
Высота : 480 пикселей
Соотношение сторон : 2,119
Частота кадров : 23,976 кадра/сек
Частота кадров в оригинале : 24,000 кадра/сек
Цветовое пространство : YUV
Субдискретизация насыщенности : 4:2:0
Битовая глубина : 8 бит
Тип развёртки : Прогрессивная
Бит/(Пиксели*Кадры) : 0.291
Размер потока : 1,20 Гбайт (87%)
Язык : English
Default : Да
Forced : Нет

Аудио
Идентификатор : 2
Формат : AC-3
Формат/Информация : Audio Coding 3
Расширение режима : CM (complete main)
Параметр Endianness формата : Big
Идентификатор кодека : A_AC3
Продолжительность : 50 м.
Вид битрейта : Постоянный
Битрейт : 448 Кбит/сек
Каналы : 6 каналов
Расположение каналов : Front: L C R, Side: L R, LFE
Частота : 48,0 КГц
Битовая глубина : 16 бит
Метод сжатия : С потерями
Размер потока : 161 Мбайт (11%)
Язык : Russian
Default : Да
Forced : Нет




   Похожие торренты   Торрент   Размер 
В этой теме нет новых непрочитанных сообщений. Адмиралъ (2008) BDRip 720p

1016 | 30

4.37 ГБ

В этой теме нет новых непрочитанных сообщений. Адмиралъ (2008) BDRip 1080p от R.G. HD-Films | 60 fps

39 | 22

14.48 ГБ

В этой теме нет новых непрочитанных сообщений. Адмиралъ [01-10 из 10] (2008) BDRip 720p | Телеверсия

200 | 28

29.99 ГБ

В этой теме нет новых непрочитанных сообщений. Адмиралъ (2008) BDRip 720p от FreeHD

1 | 2

6.54 ГБ

В этой теме нет новых непрочитанных сообщений. Адмиралъ (2008) BDRip 1080p от FreeHD

7 | 7

11.99 ГБ

В этой теме нет новых непрочитанных сообщений. Адмиралъ [01-10 из 10] (2008) BDRip 720p от HD Club

1 | 5

29.99 ГБ

В этой теме нет новых непрочитанных сообщений. Адмирал / АдмиралЪ (2008) BDRip от HQCLUB

626 | 54

2.18 ГБ




Вы не можете начинать темы
Вы не можете отвечать на сообщения
Вы не можете редактировать свои сообщения
Вы не можете удалять свои сообщения
Вы не можете добавлять вложения

Перейти:  
Для Мосгорсуда, Роскомнадзора и рекламодателей: mosgorsud-torrent[собачка]yandex.ru
 Вход
ppkBB3cker v.2 © 2008-2014 @ PPK
[ Time : 0.053s | 16 Queries | GZIP : Off ]

Торрент трекер RUTOR.IN, Не можете зайти на rutor.org? Какой новый адрес рутор? Какое зеркало рутор? Не работает rutor.org и зеркала? Тогда наш торрент специально для вас. Rutor.in неофициальное зеркало rutor. В случае если у Вас заблокирован rutor или вдруг Вы не можете на него зайти, то Вы без труда сможете скачать бесплатно и без рекламы последние новинки кино, игр, сериалов и прочего у нас, на Rutor.in. Не нужно использовать прокси, чтобы зайти на рутор, достаточно воспользоваться нашим ресурсом. Все новые фильмы, игры, сериалы, книги и музыка за 2013 и 2014 годы через торрент бесплатно. Скачивайте фильмы в хорошем качестве, игры для пк, xbox, playstation без регистрации. У нас вы найдете новые Зарубежные сериалы и Русские сериалы 2013, 2014, 2015 годов. Оставайтесь с нами, качайте любимые фильмы, игры, сериалы, книги и музыку.