img image001 image001 image001 image001 image001 image001 image001 image001 image001 image001 image001 image001 image001 image001 image001

Planets Sun Sun Sun
Статистика раздачи
Автор: Снежана | Размер: 4.37 ГБ | Добавлен: 25 июл 2013
Раздают: 677    Качают: 85
Скачать торрент
Скачать торрент
Описание торрента

СообщениеДобавлено: 25 июл 2013 

Штрафбат [01-11 из 11]
(2004)
DVDRip-AVC [Hi10P] от FREEISLAND



Год выхода: 2004
Жанр: Драма, Военный
Режиссер: Николай Досталь

В ролях:
Алексей Серебряков (комбат Твердохлебов),Юрий Степанов (Антип Глымов "Кулак"), Дмитрий Назаров (отец Михаил), Александр Баширов (Лёха "Стира"), Роман Мадянов (майор Харченко), Алексей Жарков (генерал Лыков), Дарья Мороз(Медсестра), Илья Коврижных (Савелий Цукерман), Кирилл Плетнев(Дубинин), Михаил Солодко, Вячеслав Ганенко, Виктор Супрун (гармонист), Полина Кутепова (Катерина), Василий Мищенко (Светличный), Андрей Мерзликин (капитан Вячеслав Бредунов), Лев Борисов(дед Зои), Андрей Смоляков (Фёдор Баукин), Владимир Кашпур (Зимянин), Надежда Маркина, Алексей Ошурков, Иван Моховиков, Юрий Шибанов, Ирина Карева, Павел Деревянко ("Цыпа"), Олег Валкман, Владимир Яворский, Александр Никулин (Коровин), Максим Дрозд, Евгений Березовский, Николай Мачульский ("Хорь"), Сергей Перелыгин, Кирилл Болтаев (Рубашкин) и т.д.

Описание:
Военные историки не любят говорить о штрафниках, и могилы их безымянны. Штрафными батальонами "затыкали" самые гиблые дыры фронтов, бросали в атаки на самые неприступные участки обороны немцев. Штрафбаты можно было не снабжать боеприпасами и провиантом. Эти люди, в чем-то виновные, а зачастую невинные, были "пушечным мясом", их гнали на верную смерть...
Среди штрафников были всякие: честные и негодяи, бывшие заключенные и ослушавшиеся приказа, бежавшие из плена и выступавшие против насилия... Все они стали безвестными героями, отдавшими свою жизнь за жизни других людей, за свободу родной страны, за мир на земле...



Страна: Россия
Выпущено: «МакДос» при участии киностудии «Эталон-фильм»
Продолжительность: 8 ч. 5 м. 50 с.
Перевод: Оригинал

Примечание:
Сериал смонтирован под полнометражный фильм из двухдискового (2xDVD9) лицензионного издания от «Русское счастье».
Титры оставлены только в начале и в конце фильма.
Чаптеры разбиты по сериям.

Внимание!
Рип в High 10 Profile, в настоящее время не поддерживается большинством аппаратных проигрывателей.
Для корректного воспроизведения может потребоваться обновление ПО.
Владельцам несовместимого железа просьба не беспокоить, на трекере есть альтернативные релизы.

Качество: DVDRip-AVC Hi10P (SSIM: 0.9795454)
Исходник: 2xDVD9
Контейнер: MKV
Видео кодек: x264 High10@L4.0
Аудио кодек: AC3
Видео: AVC at 1093 Кбит/сек, 708 x 476 @ 756 x 476 (1.558) at 25.000 fps
Аудио: AC-3 at 192 Кбит/сек, 2 каналов, 48,0 КГц
Субтитры: нет


Общее
Уникальный идентификатор : 254148097604668063983388772374726867499 (0xBF3324A562C7FEA59290672184707A2B)
Полное имя : Штрафбат (2004) DVDRip-Hi10P.mkv
Формат : Matroska
Версия формата : Version 2
Размер файла : 4,37 Гбайт
Продолжительность : 8 ч. 5 м.
Общий поток : 1287 Кбит/сек
Название фильма : релиз от FREEISLAND.ORG
Дата кодирования : UTC 2012-04-21 13:48:36
Программа кодирования : mkvmerge v5.5.0 ('Healer') built on Apr 6 2012 21:43:24
Библиотека кодирования : libebml v1.2.3 + libmatroska v1.3.0

Видео
Идентификатор : 1
Формат : AVC
Формат/Информация : Advanced Video Codec
Профиль формата : High 10@L4.0
Параметр CABAC формата : Да
Параметр ReFrames формата : 16 кадров
Идентификатор кодека : V_MPEG4/ISO/AVC
Продолжительность : 8 ч. 5 м.
Битрейт : 1093 Кбит/сек
Ширина : 708 пикселей
Высота : 476 пикселей
Соотношение сторон : 1,588
Частота кадров : 25,000 кадров/сек
Цветовое пространство : YUV
Субдискретизация насыщенности : 4:2:0
Битовая глубина : 10 бит
Тип развёртки : Прогрессивная
Бит/(Пиксели*Кадры) : 0.130
Размер потока : 3,63 Гбайт (83%)
Библиотека кодирования : x264 core 123 r2192+664+26 bd75503 tMod [10-bit@all X86_64]
Настройки программы : cabac=1 / ref=16 / deblock=1:-1:-1 / analyse=0x3:0x133 / me=umh / subme=11 / psy=1 / fade_compensate=0.00 / psy_rd=1.00:0.10 / mixed_ref=1 / me_range=64 / chroma_me=1 / trellis=2 / 8x8dct=1 / cqm=0 / deadzone=21,11 / fast_pskip=0 / chroma_qp_offset=-3 / threads=12 / sliced_threads=0 / nr=0 / decimate=1 / interlaced=0 / bluray_compat=0 / constrained_intra=0 / fgo=0 / bframes=9 / b_pyramid=2 / b_adapt=2 / b_bias=0 / direct=3 / weightb=1 / open_gop=0 / weightp=2 / keyint=250 / keyint_min=25 / scenecut=40 / intra_refresh=0 / rc=2pass / mbtree=0 / bitrate=1093 / ratetol=1.0 / qcomp=1.00 / qpmin=0 / qpmax=48 / qpstep=4 / cplxblur=20.0 / qblur=0.5 / ip_ratio=1.40 / pb_ratio=1.30 / aq=4:1.00
Default : Да
Forced : Нет
Основные цвета : BT.601-6 525, BT.1358 525, BT.1700 NTSC, SMPTE 170M
Характеристики трансфера : BT.601-6 525, BT.601-6 625, BT.1358 525, BT.1358 625, BT.1700 NTSC, SMPTE 170M
Коэффициенты матрицы : BT.601-6 525, BT.1358 525, BT.1700 NTSC, SMPTE 170M

Аудио
Идентификатор : 2
Формат : AC-3
Формат/Информация : Audio Coding 3
Расширение режима : CM (complete main)
Идентификатор кодека : A_AC3
Продолжительность : 8 ч. 5 м.
Вид битрейта : Постоянный
Битрейт : 192 Кбит/сек
Каналы : 2 канала
Расположение каналов : Front: L R
Частота : 48,0 КГц
Битовая глубина : 16 бит
Метод сжатия : С потерями
Размер потока : 667 Мбайт (15%)
Язык : Russian
Default : Да
Forced : Нет

Меню
00:00:00.000 : ru:[00] Начало
00:02:27.040 : ru:[01] Первая серия
00:47:23.080 : ru:[02] Вторая серия
01:33:09.760 : ru:[03] Третья серия
02:14:30.720 : ru:[04] Четвёртая серия
02:56:25.640 : ru:[05] Пятая серия
03:36:56.480 : ru:[06] Шестая серия
04:20:09.680 : ru:[07] Седьмая серия
05:04:52.960 : ru:[08] Восьмая серия
05:49:52.400 : ru:[09] Девятая серия
06:36:22.160 : ru:[10] Десятая серия
07:20:26.240 : ru:[11] Одиннадцатая серия
08:03:22.000 : ru:[12] Титры

















СЭМПЛ

Релиз от:

Если у вас возникают вопросы типа:
-почему у меня есть звук и отсутствует изображение?
-почему у меня рассыпается картинка?
-почему у меня картинка фонит синевой или зеленью?
-зачем и кому всё это нужно?
и тому подобные, читаем FAQ.
ссылка на FAQ запрещена правилами.

По этому, гуглим на тему спойлера (Что такое 10-ти битное видео (High 10 Profile - Hi10P), и как его смотреть?).



   Похожие торренты   Торрент   Размер 
В этой теме нет новых непрочитанных сообщений. Два поросенка / The Legend of the Tamworth Two (2004) DVDRip-AVC [Hi10P] от FREEISLAND

2 | 7

1.37 ГБ

В этой теме нет новых непрочитанных сообщений. Мулан 2 / Mulan II (2004) BDRip 1080p [Hi10P] от FREEISLAND

518 | 20

2.91 ГБ

В этой теме нет новых непрочитанных сообщений. Штрафбат [01-11 из 11] (2004) DVDRip

429 | 65

7.3 ГБ

В этой теме нет новых непрочитанных сообщений. Штрафбат [01-11 из 11] (2004) DVDRip.AVC

403 | 69

7.91 ГБ

В этой теме нет новых непрочитанных сообщений. Штрафбат [01-11 из 11] (2004) DVDRip

1629 | 236

5.37 ГБ

В этой теме нет новых непрочитанных сообщений. Самоубийцы (2012) DVDRip-AVC [Hi10P] от FREEISLAND

2 | 2

698.91 МБ

В этой теме нет новых непрочитанных сообщений. Zолушка (2012) DVDRip-AVC [Hi10P] от FREEISLAND

0 | 4

697.94 МБ




Вы не можете начинать темы
Вы не можете отвечать на сообщения
Вы не можете редактировать свои сообщения
Вы не можете удалять свои сообщения
Вы не можете добавлять вложения

Перейти:  
Для Мосгорсуда, Роскомнадзора и рекламодателей: mosgorsud-torrent[собачка]yandex.ru
 Вход
ppkBB3cker v.2 © 2008-2014 @ PPK
[ Time : 0.079s | 15 Queries | GZIP : Off ]

Торрент трекер RUTOR.IN, Не можете зайти на rutor.org? Какой новый адрес рутор? Какое зеркало рутор? Не работает rutor.org и зеркала? Тогда наш торрент специально для вас. Rutor.in неофициальное зеркало rutor. В случае если у Вас заблокирован rutor или вдруг Вы не можете на него зайти, то Вы без труда сможете скачать бесплатно и без рекламы последние новинки кино, игр, сериалов и прочего у нас, на Rutor.in. Не нужно использовать прокси, чтобы зайти на рутор, достаточно воспользоваться нашим ресурсом. Все новые фильмы, игры, сериалы, книги и музыка за 2013 и 2014 годы через торрент бесплатно. Скачивайте фильмы в хорошем качестве, игры для пк, xbox, playstation без регистрации. У нас вы найдете новые Зарубежные сериалы и Русские сериалы 2013, 2014, 2015 годов. Оставайтесь с нами, качайте любимые фильмы, игры, сериалы, книги и музыку.
cron