img image001 image001 image001 image001 image001 image001 image001 image001 image001 image001 image001 image001 image001 image001 image001

Planets Sun Sun Sun
Статистика раздачи
Автор: Снежана | Размер: 9.06 ГБ | Добавлен: 25 июл 2013
Раздают: 1    Качают: 2
Скачать торрент
Скачать торрент
Описание торрента

СообщениеДобавлено: 25 июл 2013 

#77

Информация о фильме
Название: Дневник доктора
Оригинальное название: Doctor's Diary - Männer sind die beste Medizin
Год выхода: 2008
Жанр: Комедия, мелодрама
Режиссер: Штеффи Экерманн (Steffi Ackermann), Бора Дагтекин (Bora Dagtekin)
В ролях: Диана Амфт (Diana Amft), Питер Прагер (Peter Prager), Урсела Монн (Ursela Monn), Флориан Дэвид Фитц (Florian David Fitz), Кай Шуманн (Kai Schumann) и другие

О фильме:
Главная героиня – доктор Гретхен Хазе – вызывает переполох не только в операционной, но и в сердцах своих коллег. После краха личной жизни Гретхен возвращается вдом своих родителей, профессора хирургии и сведущей во всем супер-матери. Цель Гретхен состоит в том, чтобы, наконец, заняться своей карьерой и забыть о мужчинах. Она – очаровательная и непредубежденная – прекрасно справляется с профессиональными трудностями, но ее личная жизнь вскоре превращается в хаос.
Новый главный врач, доктор Марк Мейер, не только первый мачо в отделении, но и бывшая школьная любовь Гретхен. А, может, добродушный гинеколог доктор Мехди Каан имеет больше шансов? Гретхен Хазе не претендует на звание белой и пушистой, она – самая обычная женщина, которая не только задумывается о своей карьере, но и прислушивается к своему сердцу. Однако ее сердце не всегда бьется ровно. Наконец-то у нас есть доказательство, что врачи – тоже люди. Они могут лгать, влюбляться и страдать. И от лишнего веса, и от любовной болезни лекарство все еще не найдено.

Сериал «Дневник доктора Зайцевой» является русской версией сериала «Doctor's diary»

Страна: Германия
Продолжительность: ~ 00:44:00
Перевод: Профессиональный (многоголосый, закадровый) ["Парк развлечений" по заказу Медиапроект]

Файл
Кодек: h264
Качество: BDRip 720p
Видео: 1280x720 (16:9), 25 fps, AVC, ~3 283 Kbps avg, 0.142 bit/pixel
Звук: Rus/Eng: 48.0 KHz, AC3, 2 ch, ~192 Kbps

Семпл


General
Unique ID : 172519601756870103288976589398088723475 (0x81CA11135D5C3393B2581DFF8D5DAC13)
Complete name : Doctor's.Diary.s01e01.BDRip-DELiCiOUS.rus.ger.Jetsam.mkv
Format : Matroska
Format version : Version 2
File size : 1.13 GiB
Duration : 44mn 12s
Overall bit rate : 3 667 Kbps
Movie name : Doctor's Diary - Männer sind die beste Medizin * s01e01
Encoded date : UTC 2012-03-08 21:44:02
Writing application : mkvmerge v5.2.0 ('I can't explain') built on Dec 18 2011 18:12:03
Writing library : libebml v1.2.3 + libmatroska v1.3.0
COUNTRY : German
GENRE : Drama, Comedy

Video
ID : 1
Format : AVC
Format/Info : Advanced Video Codec
Format profile : High@L4.1
Format settings, CABAC : Yes
Format settings, ReFrames : 5 frames
Codec ID : V_MPEG4/ISO/AVC
Duration : 44mn 12s
Bit rate : 3 283 Kbps
Width : 1 280 pixels
Height : 720 pixels
Display aspect ratio : 16:9
Frame rate : 25.000 fps
Color space : YUV
Chroma subsampling : 4:2:0
Bit depth : 8 bits
Scan type : Progressive
Bits/(Pixel*Frame) : 0.142
Stream size : 1 015 MiB (88%)
Title : Doctor's Diary - Männer sind die beste Medizin * s01e01 Männer sind Schweine!
Writing library : x264 core 116 r2074 2641b9e
Encoding settings : cabac=1 / ref=5 / deblock=1:0:0 / analyse=0x3:0x113 / me=umh / subme=7 / psy=1 / psy_rd=1.00:0.00 / mixed_ref=1 / me_range=16 / chroma_me=1 / trellis=1 / 8x8dct=1 / cqm=0 / deadzone=21,11 / fast_pskip=0 / chroma_qp_offset=-2 / threads=12 / sliced_threads=0 / nr=0 / decimate=1 / interlaced=0 / bluray_compat=0 / constrained_intra=0 / bframes=3 / b_pyramid=2 / b_adapt=1 / b_bias=0 / direct=1 / weightb=1 / open_gop=0 / weightp=2 / keyint=250 / keyint_min=25 / scenecut=40 / intra_refresh=0 / rc_lookahead=40 / rc=2pass / mbtree=1 / bitrate=3283 / ratetol=1.0 / qcomp=0.60 / qpmin=0 / qpmax=69 / qpstep=4 / cplxblur=20.0 / qblur=0.5 / ip_ratio=1.40 / aq=1:1.00
Language : German

Audio #1
ID : 2
Format : AC-3
Format/Info : Audio Coding 3
Mode extension : CM (complete main)
Codec ID : A_AC3
Duration : 44mn 12s
Bit rate mode : Constant
Bit rate : 192 Kbps
Channel(s) : 2 channels
Channel positions : Front: L R
Sampling rate : 48.0 KHz
Bit depth : 16 bits
Compression mode : Lossy
Stream size : 60.7 MiB (5%)
Title : Russian ("Парк развлечений")
Language : Russian

Audio #2
ID : 3
Format : AC-3
Format/Info : Audio Coding 3
Mode extension : CM (complete main)
Codec ID : A_AC3
Duration : 44mn 12s
Bit rate mode : Constant
Bit rate : 192 Kbps
Channel(s) : 2 channels
Channel positions : Front: L R
Sampling rate : 48.0 KHz
Bit depth : 16 bits
Compression mode : Lossy
Stream size : 60.7 MiB (5%)
Language : German


1. Открыть торрент.
2. Снять галки с тех файлов торрента, которые мы не хотим закачивать. Оставляем только на нужных нам файлах (файле).
3. Нажать О.К.

Раздача ведётся путём добавления новых серий; при каждом добавлении создаётся новый торрент. Чтобы начать докачку новой серии, пользователям необходимо сделать следующее:
(1) остановить скачивание,
(2) удалить старый торрент у себя из клиента (старые серии удалять не надо),
(3) скачать новый торрент и запустить его у себя в клиенте вместо старого, при этом указать клиенту путь в старую папку куда и должно происходить скачивание новых серий.

Ваш клиент при этом должен произвести хеширование (проверку) старой папки (если не производит сам - помогите ему сделать это), и будет докачивать только те серии которых у вас ещё нет. Старые серии при этом не удаляются, а продолжают раздаваться!

Eсли вы уже удалили старые серии, то предотвратить повторную закачку старых серий можно, отжав галочку в соответствующих местах при запуске нового торрента. По возможности, желательно не удалять старые серии как можно дольше чтобы релизёр не столько продолжал раздавать старые серии, а смог сконцентрироваться на новых.


Добавлены 6-8 серии: 27.04.2012



   Похожие торренты   Торрент   Размер 
В этой теме нет новых непрочитанных сообщений. Дневник доктора / Doctor's Diary - Männer sind die beste Medizin [S01-03] (2008-2011) DVDRip | Р

4 | 1

14.28 ГБ

В этой теме нет новых непрочитанных сообщений. Дневник доктора - Мужчины лучшее лекарство / Doctor's Diary - Mаnner sind die beste Medizin [S01-03](2008-2011) BDRip 720р

0 | 9

27.23 ГБ

В этой теме нет новых непрочитанных сообщений. Доктор Кто: День Доктора / Doctor Who: The Day of the Doctor (2013) BDRip 1080p от Ash61 | 3D-Video | halfOU | P

120 | 8

10.56 ГБ

В этой теме нет новых непрочитанных сообщений. Ромовый дневник / The Rum Diary (2011) BDRip 720p

35 | 4

4.74 ГБ

В этой теме нет новых непрочитанных сообщений. Воображариум доктора Парнаса / The Imaginarium of Doctor Parnassus (2009) BDRip 720p

20 | 4

9.36 ГБ

В этой теме нет новых непрочитанных сообщений. Ромовый дневник / The Rum Diary (2011) BDRip 720p | Лицензия

6 | 2

9.94 ГБ

В этой теме нет новых непрочитанных сообщений. Ромовый дневник / The Rum Diary (2011) BDRip 720p от DHT-Movies

2 | 5

4.27 ГБ




Вы не можете начинать темы
Вы не можете отвечать на сообщения
Вы не можете редактировать свои сообщения
Вы не можете удалять свои сообщения
Вы не можете добавлять вложения

Перейти:  
Для Мосгорсуда, Роскомнадзора и рекламодателей: mosgorsud-torrent[собачка]yandex.ru
 Вход
ppkBB3cker v.2 © 2008-2014 @ PPK
[ Time : 0.708s | 15 Queries | GZIP : Off ]

Торрент трекер RUTOR.IN, Не можете зайти на rutor.org? Какой новый адрес рутор? Какое зеркало рутор? Не работает rutor.org и зеркала? Тогда наш торрент специально для вас. Rutor.in неофициальное зеркало rutor. В случае если у Вас заблокирован rutor или вдруг Вы не можете на него зайти, то Вы без труда сможете скачать бесплатно и без рекламы последние новинки кино, игр, сериалов и прочего у нас, на Rutor.in. Не нужно использовать прокси, чтобы зайти на рутор, достаточно воспользоваться нашим ресурсом. Все новые фильмы, игры, сериалы, книги и музыка за 2013 и 2014 годы через торрент бесплатно. Скачивайте фильмы в хорошем качестве, игры для пк, xbox, playstation без регистрации. У нас вы найдете новые Зарубежные сериалы и Русские сериалы 2013, 2014, 2015 годов. Оставайтесь с нами, качайте любимые фильмы, игры, сериалы, книги и музыку.