img image001 image001 image001 image001 image001 image001 image001 image001 image001 image001 image001 image001 image001 image001 image001

Planets Sun Sun Sun
Статистика раздачи
Автор: Снежана | Размер: 1.91 ГБ | Добавлен: 25 июл 2013
Раздают: 1    Качают: 1
Скачать торрент
Скачать торрент
Описание торрента

СообщениеДобавлено: 25 июл 2013 

#77

Год выпуска: 2012
Страна: США
Жанр: триллер, драма, криминал
Продолжительность: ~00:44:00
Перевод: Любительский (многоголосый закадровый) - 7 голосов - DreamRecords & ViruseProject
Русские субтитры: есть
Режиссёр: Билл Джирхарт / Bill Gierhart

В ролях: Доменик Ломбардоззи, Брук Невин, Малкольм Гудвин, Джимми Симпсон, Лас Алонсо, Серинда Свон, Иэн Боэн, Брок Джонсон, Катрин Дент, Джонатан Хэгей и др.

Описание: Сериал рассказывает о команде состоящей из приставов и бывших беглецов, которые работают вместе, чтобы ловить сбежавших из тюрьмы преступников. Руководствуясь тем, что есть вещи более опасные чем только что сбежавший заключённый, и уставшие от последующих за этим протоколов и обращению к устаревшим методам поиска, опытные приставы США Чарли Дюшамп и Рэй Занкенелли проявляют неортодоксальный подход к своей работе: с помощью бывших беглецов ловить сбежавших из тюрьмы заключённых.


Релиз:

Эпизод 1 An Unjust Death
Эпизод 2 Round Two
Эпизод 3 Double Down
Эпизод 4 Cruz Control
Эпизод 5 Self Help

Вот еще проекты с нашей озвучкой:
Мертвеход / The Revenant (Д. Керри Прайор / D. Kerry Prior)
Время смелых / Tiempo de valientes (Дэмиан Зифрон / Damián Szifron)
Обвиняемые / Accused / Сезон: 1 [2010]
Отчаянные парни / Wild Boys / Сезон: 1 [2011]

Озвучка:
*Christh (Владимир Чистохин)

*Kenum (Владислав Данилов)

*johnynu (Евгений Яковель)

*IgVin (Игорь Головин) с 3 серии

*mazter (Сергей Фадеев) с 4 серии

*СЕСТРА (Светлана Чистохина)

* _Lost_Girl_ (Полина Касаткина)

Работа со звуком: viruse (Виталий Емельянов)

Перевод: Анна Швыдко, Александр Спирин

Постер: Mystery


скачать СЕМПЛ с multi-up
http://rutube.ru/tracks/5433744.html?confirm=5efe9bd08739876571ae5351081d719e - Смотреть семпл озвучки на youtube

Качество: HDTVRip
Формат: AVI
Видео кодек: XviD
Аудио кодек: MP3
Видео: 624x352 (1.77:1), 23.976 fps, XviD build 50 ~1004 kbps avg, 0.19 bit/pixel
Аудио (RU): 48 kHz, MPEG Layer 3, 2 ch, ~128.00 kbps avg
Аудио (ENG): 48 kHz, MPEG Layer 3, 2 ch, ~128.00 kbps avg

D:ОЗВУЧКАГОТОВОЕBreakout Kings - 2 seasonBreakout.Kings.S02E01.DreamRecords&ViruseProject.avi
General
Complete name : D:ОЗВУЧКАГОТОВОЕBreakout Kings - 2 seasonBreakout.Kings.S02E01.DreamRecords&ViruseProject.avi
Format : AVI
Format/Info : Audio Video Interleave
File size : 380 MiB
Duration : 42mn 28s
Overall bit rate : 1 251 Kbps
Writing application : VirtualDubMod 1.5.10.2 (build 2540/release)
Writing library : VirtualDubMod build 2540/release
Video #0
ID : 0
Format : MPEG-4 Visual
Format profile : Advanced Simple@L5
Format settings, BVOP : 2
Format settings, QPel : No
Format settings, GMC : No warppoints
Format settings, Matrix : Default (H.263)
Codec ID : XVID
Codec ID/Hint : XviD
Duration : 42mn 28s
Bit rate : 981 Kbps
Width : 624 pixels
Height : 352 pixels
Display aspect ratio : 16:9
Frame rate : 23.976 fps
Color space : YUV
Chroma subsampling : 4:2:0
Bit depth : 8 bits
Scan type : Progressive
Compression mode : Lossy
Bits/(Pixel*Frame) : 0.186
Stream size : 298 MiB (78%)
Writing library : XviD 1.2.1 (UTC 2008-12-04)
Audio #1
ID : 1
Format : MPEG Audio
Format version : Version 1
Format profile : Layer 3
Codec ID : 55
Codec ID/Hint : MP3
Duration : 42mn 28s
Bit rate mode : Constant
Bit rate : 128 Kbps
Channel(s) : 2 channels
Sampling rate : 48.0 KHz
Compression mode : Lossy
Stream size : 38.9 MiB (10%)
Alignment : Aligned on interleaves
Interleave, duration : 42 ms (1.00 video frame)
Interleave, preload duration : 504 ms
Audio #2
ID : 2
Format : MPEG Audio
Format version : Version 1
Format profile : Layer 3
Codec ID : 55
Codec ID/Hint : MP3
Duration : 42mn 28s
Bit rate mode : Variable
Bit rate : 128 Kbps
Channel(s) : 2 channels
Sampling rate : 48.0 KHz
Compression mode : Lossy
Stream size : 38.9 MiB (10%)
Alignment : Split accross interleaves
Interleave, duration : 42 ms (1.00 video frame)
Interleave, preload duration : 500 ms



ВНИМАНИЕ!!!
Добавлена 5 серия;
Перезалейте торрентфайл



   Похожие торренты   Торрент   Размер 
В этой теме нет новых непрочитанных сообщений. Короли Побега / The Breakout Kings [02х01] (2012) HDTVRip | Озвучено по версии Шадинского

0 | 1

349.51 МБ

В этой теме нет новых непрочитанных сообщений. Короли Побега / The Breakout Kings [02х09] (2012) HDTVRip по версии Шадинского

0 | 1

370.01 МБ

В этой теме нет новых непрочитанных сообщений. Короли Побега / The Breakout Kings [02х08] (2012) HDTVRip по версии Шадинского

0 | 1

349.25 МБ

В этой теме нет новых непрочитанных сообщений. Короли Побега / The Breakout Kings [02х10] (2012) HDTVRip по версии Шадинского

1 | 1

325.82 МБ

В этой теме нет новых непрочитанных сообщений. Короли Побега / The Breakout Kings [02х07] (2012) HDTVRip по версии Шадинского

0 | 1

355.8 МБ

В этой теме нет новых непрочитанных сообщений. Короли Побега / The Breakout Kings [02х04] (2012) HDTVRip по версии Шадинского

0 | 1

358.1 МБ

В этой теме нет новых непрочитанных сообщений. Короли Побега / The Breakout Kings [02х06] (2012) HDTVRip по версии Шадинского

0 | 1

358.46 МБ




Вы не можете начинать темы
Вы не можете отвечать на сообщения
Вы не можете редактировать свои сообщения
Вы не можете удалять свои сообщения
Вы не можете добавлять вложения

Перейти:  
Для Мосгорсуда, Роскомнадзора и рекламодателей: mosgorsud-torrent[собачка]yandex.ru
 Вход
ppkBB3cker v.2 © 2008-2014 @ PPK
[ Time : 1.076s | 15 Queries | GZIP : Off ]

Торрент трекер RUTOR.IN, Не можете зайти на rutor.org? Какой новый адрес рутор? Какое зеркало рутор? Не работает rutor.org и зеркала? Тогда наш торрент специально для вас. Rutor.in неофициальное зеркало rutor. В случае если у Вас заблокирован rutor или вдруг Вы не можете на него зайти, то Вы без труда сможете скачать бесплатно и без рекламы последние новинки кино, игр, сериалов и прочего у нас, на Rutor.in. Не нужно использовать прокси, чтобы зайти на рутор, достаточно воспользоваться нашим ресурсом. Все новые фильмы, игры, сериалы, книги и музыка за 2013 и 2014 годы через торрент бесплатно. Скачивайте фильмы в хорошем качестве, игры для пк, xbox, playstation без регистрации. У нас вы найдете новые Зарубежные сериалы и Русские сериалы 2013, 2014, 2015 годов. Оставайтесь с нами, качайте любимые фильмы, игры, сериалы, книги и музыку.