img image001 image001 image001 image001 image001 image001 image001 image001 image001 image001 image001 image001 image001 image001 image001

Planets Sun Sun Sun
Статистика раздачи
Автор: Снежана | Размер: 10.81 ГБ | Добавлен: 25 июл 2013
Раздают: 17    Качают: 7
Скачать торрент
Скачать торрент
Описание торрента

СообщениеДобавлено: 25 июл 2013 


Год выпуска: 2012
Жанр: военный, криминал
Режиссёр: Эльер Ишмухамедов
В ролях: Михаил Ефремов, Александр Домогаров, Марина Александрова, Иван Стебунов, Игорь Лифанов, Владимир Гостюхин, Тамара Акулова, Михаил Васьков, Елизавета Боярская, Александр Яцко, Игорь Скляр, Юрий Цурило, Михаил Асанкин, Кирилл Болтаев, Елена Морозова, Николай Ефремов, Анна Багмет, Сергей Петров, Юрий Тарасов, Евгений Зотов, Виктор Косых, Людмила Аринина, Антон Багмет, Елена Баркевич и др.

Описание:
События разворачиваются в Москве в годы войны. Главный герой Иван Данилов, начальник Отдела по борьбе с бандитизмом Московского уголовного розыска, распутывает одно дело за другим, предотвращает спланированные немцами диверсии в прифронтовой столице и ловит бандитов. В центре истории - противостояние начальника отдела МУРа с главарём бандитов.
Все раздачи сериала



Производство: Студия "Дед Мороз"
Продолжительность: ~00:42:00 серия

Качество: SATRip - AVC
Формат: MKV
Видео кодек: H.264
Аудио кодек: AC3
Видео: x264 704х384 pix 16:9 25 fps 1639 Kbps 0.243 bit/pix
Аудио: 48 kHz, AC3 Dolby Digital, 2/0 (L,R) ch, ~192.00 kbps avg

Скачать сэмпл

Релиз:


Общее
Уникальный идентификатор : 246974707529763730705745831738425384253 (0xB9CD993593F6D1B991C0727588B29D3D)
Полное имя : D:КИНОсериалыМУР_SatRip_by_DrekМУР_08_SatRip_by_Drek.mkv
Формат : Matroska
Версия формата : Version 2
Размер файла : 554 Мбайт
Продолжительность : 42 м.
Общий поток : 1813 Кбит/сек
Дата кодирования : UTC 2012-04-23 00:57:44
Программа кодирования : mkvmerge v5.0.1 ('Es ist Sommer') built on Oct 24 2011 19:45:06
Библиотека кодирования : libebml v1.2.2 + libmatroska v1.3.0

Видео
Идентификатор : 1
Формат : AVC
Формат/Информация : Advanced Video Codec
Профиль формата : High@L3.1
Параметр CABAC формата : Да
Параметр ReFrames формата : 10 кадров
Идентификатор кодека : V_MPEG4/ISO/AVC
Продолжительность : 42 м.
Битрейт : 1619 Кбит/сек
Ширина : 704 пикселя
Высота : 384 пикселя
Соотношение сторон : 1,85:1
Частота кадров : 25,000 кадров/сек
Цветовое пространство : YUV
Субдискретизация насыщенности : 4:2:0
Битовая глубина : 8 бит
Тип развёртки : Прогрессивная
Бит/(Пиксели*Кадры) : 0.240
Размер потока : 484 Мбайт (87%)
Библиотека кодирования : x264 core 119 r2106 07efeb4
Настройки программы : cabac=1 / ref=10 / deblock=1:-1:-1 / analyse=0x3:0x113 / me=umh / subme=9 / psy=1 / psy_rd=1.00:0.15 / mixed_ref=1 / me_range=24 / chroma_me=1 / trellis=1 / 8x8dct=1 / cqm=0 / deadzone=21,11 / fast_pskip=0 / chroma_qp_offset=-3 / threads=3 / sliced_threads=0 / nr=0 / decimate=0 / interlaced=0 / bluray_compat=0 / constrained_intra=0 / bframes=8 / b_pyramid=2 / b_adapt=2 / b_bias=0 / direct=3 / weightb=1 / open_gop=0 / weightp=2 / keyint=250 / keyint_min=25 / scenecut=40 / intra_refresh=0 / rc=2pass / mbtree=0 / bitrate=1619 / ratetol=1.0 / qcomp=0.60 / qpmin=0 / qpmax=69 / qpstep=4 / cplxblur=20.0 / qblur=0.5 / ip_ratio=1.40 / pb_ratio=1.30 / aq=2:0.80
Default : Да
Forced : Нет
Основные цвета : BT.470-6 System B, BT.470-6 System G, BT.601-6 625, BT.1358 625, BT.1700 625 PAL, BT.1700 625 SECAM
Характеристики трансфера : BT.470-6 System B, BT.470-6 System G
Коэффициенты матрицы : BT.470-6 System B, BT.470-6 System G, BT.601-6 625, BT.1358 625, BT.1700 625 PAL, BT.1700 625 SECAM, IEC 61966-2-4 601

Аудио
Идентификатор : 2
Формат : AC-3
Формат/Информация : Audio Coding 3
Расширение режима : CM (complete main)
Параметр Endianness формата : Big
Идентификатор кодека : A_AC3
Продолжительность : 42 м.
Вид битрейта : Постоянный
Битрейт : 192 Кбит/сек
Каналы : 2 канала
Расположение каналов : Front: L R
Частота : 48,0 КГц
Битовая глубина : 16 бит
Метод сжатия : С потерями
Размер потока : 58,6 Мбайт (11%)
Default : Да
Forced : Нет


Добавил последние 19-20 серии - обновите торрент



   Похожие торренты   Торрент   Размер 
В этой теме нет новых непрочитанных сообщений. МУР (Третий фронт) [01-20 из 20] (2012) DVDRip

91 | 29

13.07 ГБ

В этой теме нет новых непрочитанных сообщений. МУР (Третий фронт) [01-20 из 20] (2012) DVDRip-AVC от Youtracker

28 | 12

13.08 ГБ

В этой теме нет новых непрочитанных сообщений. МУР (Третий фронт) [01-20 из 20] (2012) DVDRip | КПК от Kino@rena

15 | 8

2.77 ГБ

В этой теме нет новых непрочитанных сообщений. Снукер. Shanghai Masters 2012. День третий [Eurosport] (2012) SATRip

0 | 1

3.17 ГБ

В этой теме нет новых непрочитанных сообщений. Баскетбол. Евролига 2011-12. Мужчины. Плей-офф. 1/4 финала. Третий матч. Бильбао — ЦСКА (2012) SATRip

0 | 2

1.5 ГБ

В этой теме нет новых непрочитанных сообщений. Секретные материалы. Валютный фронт. (2010) SATRip

0 | 2

314.18 МБ

В этой теме нет новых непрочитанных сообщений. Восточный Фронт - Дискография (2011-2012) MP3

0 | 39

157.54 МБ




Вы не можете начинать темы
Вы не можете отвечать на сообщения
Вы не можете редактировать свои сообщения
Вы не можете удалять свои сообщения
Вы не можете добавлять вложения

Перейти:  
Для Мосгорсуда, Роскомнадзора и рекламодателей: mosgorsud-torrent[собачка]yandex.ru
 Вход
ppkBB3cker v.2 © 2008-2014 @ PPK
[ Time : 0.045s | 15 Queries | GZIP : Off ]

Торрент трекер RUTOR.IN, Не можете зайти на rutor.org? Какой новый адрес рутор? Какое зеркало рутор? Не работает rutor.org и зеркала? Тогда наш торрент специально для вас. Rutor.in неофициальное зеркало rutor. В случае если у Вас заблокирован rutor или вдруг Вы не можете на него зайти, то Вы без труда сможете скачать бесплатно и без рекламы последние новинки кино, игр, сериалов и прочего у нас, на Rutor.in. Не нужно использовать прокси, чтобы зайти на рутор, достаточно воспользоваться нашим ресурсом. Все новые фильмы, игры, сериалы, книги и музыка за 2013 и 2014 годы через торрент бесплатно. Скачивайте фильмы в хорошем качестве, игры для пк, xbox, playstation без регистрации. У нас вы найдете новые Зарубежные сериалы и Русские сериалы 2013, 2014, 2015 годов. Оставайтесь с нами, качайте любимые фильмы, игры, сериалы, книги и музыку.
cron