img image001 image001 image001 image001 image001 image001 image001 image001 image001 image001 image001 image001 image001 image001 image001

Planets Sun Sun Sun
Статистика раздачи
Автор: Снежана | Размер: 3.71 ГБ | Добавлен: 25 июл 2013
Раздают: 0    Качают: 2
Скачать торрент
Скачать торрент
Описание торрента

СообщениеДобавлено: 25 июл 2013 

#77

Информация о фильме
Название: Взлом
Оригинальное название: Breaking In
Год выхода: 2012
Жанр: Комедия
Режиссер: Сэт Гордон
В ролях: Брэд Харрисон, Мэган Мьюлали, Альфонсо МакУэлли, Эрин Ричардс, Одет Анабель, Дженнифер Ирвин и Кристиан Слэйтер

О фильме:
Сериал повествует о "Контра Секьюрити" - фирме, услугами которой пользуются в том случае, когда хотят проверить охранную систему, например, банка, или галереи. «Выявить слабости системы до такого, как это сделают преступники» — примерно так звучит слоган фирмы. То есть, необходимо «ограбить» заданный объект! Команда из хакера, взломщицы и технаря работает под неустанным наблюдением и контролем экстравагантного начальника, не только решающего проблемы своих людей, но порой и создающего их.

Страна: США
Продолжительность: 00:21:43
Перевод: Любительский одноголосый закадровый - Ч.Б.

Файл
Кодек: H.264
Качество: HDTV 720p
Видео: AVC, 1280x720, 23,976 кадра/сек, 2 949 Kbps, 0.133
Звук:
Rus: MP3, 44,1 КГц, 2 канала, 128 Кбит/сек
Eng: AC3, 48,0 КГц, 6 каналов, 448 Кбит/сек

Семпл


Формат : Matroska
Версия формата : Version 2
Размер файла : 557 Мбайт
Продолжительность : 21 м.
Общий поток : 3581 Кбит/сек
Дата кодирования : UTC 2012-03-20 19:39:09
Программа кодирования : mkvmerge v4.9.1 ('Ich will') сборка от Jul 11 2011 23:53:15
Библиотека кодирования : libebml v1.2.1 + libmatroska v1.1.1

Видео
Идентификатор : 1
Формат : AVC
Формат/Информация : Advanced Video Codec
Профиль формата : High@L4.1
Параметр CABAC формата : Да
Параметр ReFrames формата : 9 кадров
Режим смешивания : Header stripping
Идентификатор кодека : V_MPEG4/ISO/AVC
Продолжительность : 21 м.
Битрейт : 2934 Кбит/сек
Ширина : 1280 пикселей
Высота : 720 пикселей
Соотношение сторон : 16:9
Частота кадров : 23,976 кадра/сек
Цветовое пространство : YUV
Субдискретизация насыщенности : 4:2:0
Битовая глубина : 8 бит
Тип развёртки : Прогрессивная
Бит/(Пиксели*Кадры) : 0.133
Размер потока : 456 Мбайт (82%)
Библиотека кодирования : x264 core 120 r2164 da19765
Настройки программы : cabac=1 / ref=9 / deblock=1:-2:-2 / analyse=0x3:0x133 / me=umh / subme=10 / psy=1 / psy_rd=1.00:0.00 / mixed_ref=1 / me_range=32 / chroma_me=1 / trellis=2 / 8x8dct=1 / cqm=0 / deadzone=21,11 / fast_pskip=0 / chroma_qp_offset=-2 / threads=16 / sliced_threads=0 / nr=0 / decimate=1 / interlaced=0 / bluray_compat=0 / constrained_intra=0 / bframes=5 / b_pyramid=2 / b_adapt=2 / b_bias=0 / direct=3 / weightb=1 / open_gop=0 / weightp=2 / keyint=250 / keyint_min=23 / scenecut=40 / intra_refresh=0 / rc_lookahead=60 / rc=crf / mbtree=1 / crf=18.0 / qcomp=0.60 / qpmin=0 / qpmax=69 / qpstep=4 / ip_ratio=1.40 / aq=1:1.00
Язык : Russian
Default : Нет
Forced : Нет

Аудио #1
Идентификатор : 2
Формат : MPEG Audio
Версия формата : Version 1
Профиль формата : Layer 3
Режим : Joint stereo
Режим смешивания : Header stripping
Идентификатор кодека : A_MPEG/L3
Идентификатор кодека/Подсказка : MP3
Продолжительность : 21 м.
Вид битрейта : Постоянный
Битрейт : 128 Кбит/сек
Каналы : 2 канала
Частота : 44,1 КГц
Метод сжатия : С потерями
Размер потока : 19,9 Мбайт (4%)
Заголовок : Ч.Б.
Язык : Russian
Default : Нет
Forced : Нет

Аудио #2
Идентификатор : 3
Формат : AC-3
Формат/Информация : Audio Coding 3
Расширение режима : CM (complete main)
Режим смешивания : Header stripping
Идентификатор кодека : A_AC3
Продолжительность : 21 м.
Вид битрейта : Постоянный
Битрейт : 448 Кбит/сек
Каналы : 6 каналов
Расположение каналов : Front: L C R, Side: L R, LFE
Частота : 48,0 КГц
Битовая глубина : 16 бит
Метод сжатия : С потерями
Размер потока : 69,6 Мбайт (13%)
Заголовок : Оригинал
Язык : English
Default : Да
Forced : Нет


1. Открыть торрент.
2. Снять галки с тех файлов торрента, которые мы не хотим закачивать. Оставляем только на нужных нам файлах (файле).
3. Нажать О.К.

Раздача ведётся путём добавления новых серий; при каждом добавлении создаётся новый торрент. Чтобы начать докачку новой серии, пользователям необходимо сделать следующее:
(1) остановить скачивание,
(2) удалить старый торрент у себя из клиента (старые серии удалять не надо),
(3) скачать новый торрент и запустить его у себя в клиенте вместо старого, при этом указать клиенту путь в старую папку куда и должно происходить скачивание новых серий.

Ваш клиент при этом должен произвести хеширование (проверку) старой папки (если не производит сам - помогите ему сделать это), и будет докачивать только те серии которых у вас ещё нет. Старые серии при этом не удаляются, а продолжают раздаваться!

Eсли вы уже удалили старые серии, то предотвратить повторную закачку старых серий можно, отжав галочку в соответствующих местах при запуске нового торрента. По возможности, желательно не удалять старые серии как можно дольше чтобы релизёр не столько продолжал раздавать старые серии, а смог сконцентрироваться на новых.


Добавлена 5 серия: 01.05.2012



   Похожие торренты   Торрент   Размер 
В этой теме нет новых непрочитанных сообщений. Взлом / Breaking In [02x01-05] (2012) HDTVRip

0 | 2

1.1 ГБ

В этой теме нет новых непрочитанных сообщений. Взлом / Лучшая охрана / Breaking In [S02] (2012) DVDRip | DreamRecords

10 | 7

2.36 ГБ

В этой теме нет новых непрочитанных сообщений. Взлом / Breaking In [S01] (2011) WEB-DL 720p от Кубик в Кубе

11 | 6

5.07 ГБ

В этой теме нет новых непрочитанных сообщений. Взлом / Breaking In [S01] (2011) HDTVRip | Кубик в Кубе

15 | 3

1.47 ГБ

В этой теме нет новых непрочитанных сообщений. Взлом и проникновение / Вторжение / Breaking and Entering (2006) HDRip | P2

127 | 42

1.46 ГБ

В этой теме нет новых непрочитанных сообщений. Взлом и проникновение / Вторжение / Breaking and Entering (2006) HDRip

13 | 3

745.27 МБ

В этой теме нет новых непрочитанных сообщений. Взлом и проникновение / Вторжение / Breaking and Entering (2006) ВDRip 720р | P, Р2

56 | 9

7.18 ГБ




Вы не можете начинать темы
Вы не можете отвечать на сообщения
Вы не можете редактировать свои сообщения
Вы не можете удалять свои сообщения
Вы не можете добавлять вложения

Перейти:  
Для Мосгорсуда, Роскомнадзора и рекламодателей: mosgorsud-torrent[собачка]yandex.ru
 Вход
ppkBB3cker v.2 © 2008-2014 @ PPK
[ Time : 0.056s | 16 Queries | GZIP : Off ]

Торрент трекер RUTOR.IN, Не можете зайти на rutor.org? Какой новый адрес рутор? Какое зеркало рутор? Не работает rutor.org и зеркала? Тогда наш торрент специально для вас. Rutor.in неофициальное зеркало rutor. В случае если у Вас заблокирован rutor или вдруг Вы не можете на него зайти, то Вы без труда сможете скачать бесплатно и без рекламы последние новинки кино, игр, сериалов и прочего у нас, на Rutor.in. Не нужно использовать прокси, чтобы зайти на рутор, достаточно воспользоваться нашим ресурсом. Все новые фильмы, игры, сериалы, книги и музыка за 2013 и 2014 годы через торрент бесплатно. Скачивайте фильмы в хорошем качестве, игры для пк, xbox, playstation без регистрации. У нас вы найдете новые Зарубежные сериалы и Русские сериалы 2013, 2014, 2015 годов. Оставайтесь с нами, качайте любимые фильмы, игры, сериалы, книги и музыку.