img image001 image001 image001 image001 image001 image001 image001 image001 image001 image001 image001 image001 image001 image001 image001

Planets Sun Sun Sun
Статистика раздачи
Автор: Снежана | Размер: 18.56 ГБ | Добавлен: 25 июл 2013
Раздают: 9    Качают: 11
Скачать торрент
Скачать торрент
Описание торрента

СообщениеДобавлено: 25 июл 2013 

#77


От Фрэнка Дарабонта, Режиссера «Побег из Шоушенка»
и Продюсера сериала «Терминатор»

Описание

Название: Ходячие мертвецы
Оригинальное название: The Walking Dead
Год выхода: 2010
Жанр: ужасы
Создатель: Фрэнк Дарабонт
В ролях: Джон Бернтал, Джеффри ДеМунн, Лори Холден, Эндрю Линкольн, Деррик МакЛеод, Адам Минарович, Чендлер Риггз, Майкл Рукер, Сара Уэйн Кэллис, Steven Yeun

Сюжет фильма

Сериал рассказывает историю жизни семьи шерифа после того, как «зомби» - эпидемия апокалипсических масштабов захлестнула земной шар. Шериф Рик Грайм путешествует со своей семьей и небольшой группой выживших в поисках безопасного места для жизни. Но постоянный страх смерти каждый день приносит тяжелые потери, заставляя героев почувствовать глубины человеческой жестокости. Рик пытается спасти свою семью, и открывает для себя, что всепоглощающий страх тех, кто выжил, может быть опаснее бессмысленных мертвецов, бродящих по земле.

• Сериал является экранизацией одноименной комикс-серии, которая начала выходить в 2003 году.
• Одним из продюсеров сериала является Роберт Киркман - автор (сценарист) комикса.
• Первую серию «The Walking Dead» посмотрели 5.3 млн. зрителей. Показ стал самым рейтинговым в истории телеканала АМС.

1: Days Gone Bye / Колишні дні / Дни, Ушедшие Навсегда
2: Guts / Нутрощі / Кишки
3: Tell It to the Frogs / Розкажи це жабам / Скажи Это Лягушкам
4: Vatos / Ватос / Ватос
5: Wildfire / Пекельний Вогонь / Инфекция
6: TS-19 / ТС-19 / Подопытный




Cэмпл

Выпущено: США
Продолжительность серии: ~45мин.
Перевод: Многоголосый закадровый, LostFilmTV

Качество: BDRip 1080p (исходник BDRemux)
Видео: 1920x1072, ~6598 Кбит/сек, 23.976 кадр/сек, AVC, x264, 16/9 , 0.145 Бит/(Пиксели*Кадры)
Аудио: AC-3, 384 Кбит/сек, 6 канала(ов), 48,0 КГц LostFilmTV
Контейнер: MKV
Размер серий: 2.17 Гб

Отдельно

Аудио: AC-3, 384 Кбит/сек, 6 канала(ов), 48,0 КГц Russian Двухголосый закадровый, Кубик в Кубе
Аудио: AC-3, 384 Кбит/сек, 6 канала(ов), 48,0 КГц Russian Многоголосый закадровый, студия "Новамедиа"
Аудио: AC-3, 384 Кбит/сек, 6 канала(ов), 48,0 КГц Russian Одноголосый закадровый, В.Белов
Аудио: AC-3, 384 Кбит/сек, 6 канала(ов), 48,0 КГц Russian Многоголосый закадровый, FoxCrime
Аудио: AC-3, 384 Кбит/сек, 6 канала(ов), 48,0 КГц Ukrainian Многоголосый закадровый, UATEAM
Аудио: AC-3, 384 Кбит/сек, 6 канала(ов), 48,0 КГц English



Format : Matroska
Format version : Version 2
File size : 2.18 GiB
Duration : 44mn 40s
Overall bit rate : 6 980 Kbps
Movie name : Rip by mitrian (NOLIMITS-TEAM.RU)
Encoded date : UTC 2012-05-02 14:04:50
Writing application : mkvmerge v5.5.0 ('Healer') built on Apr 6 2012 21:43:24
Writing library : libebml v1.2.3 + libmatroska v1.3.0

Video
ID : 1
Format : AVC
Format/Info : Advanced Video Codec
Format profile : High@L4.1
Format settings, CABAC : Yes
Format settings, ReFrames : 4 frames
Codec ID : V_MPEG4/ISO/AVC
Duration : 44mn 40s
Bit rate : 6 598 Kbps
Width : 1 920 pixels
Height : 1 072 pixels
Display aspect ratio : 16:9
Original display aspect ratio : 16:9
Frame rate : 23.976 fps
Color space : YUV
Chroma subsampling : 4:2:0
Bit depth : 8 bits
Scan type : Progressive
Bits/(Pixel*Frame) : 0.134
Stream size : 2.02 GiB (93%)
Title : 2 серия
Writing library : x264 core 122 r2183 c522ad1
Encoding settings : cabac=1 / ref=4 / deblock=1:-3:-2 / analyse=0x3:0x133 / me=umh / subme=10 / psy=1 / psy_rd=1.00:0.15 / mixed_ref=1 / me_range=32 / chroma_me=1 / trellis=2 / 8x8dct=1 / cqm=0 / deadzone=21,11 / fast_pskip=0 / chroma_qp_offset=-3 / threads=6 / sliced_threads=0 / slices=4 / nr=0 / decimate=0 / interlaced=0 / bluray_compat=0 / constrained_intra=0 / bframes=5 / b_pyramid=2 / b_adapt=2 / b_bias=0 / direct=3 / weightb=1 / open_gop=0 / weightp=2 / keyint=240 / keyint_min=24 / scenecut=40 / intra_refresh=0 / rc_lookahead=60 / rc=2pass / mbtree=1 / bitrate=6598 / ratetol=2.0 / qcomp=0.60 / qpmin=0 / qpmax=51 / qpstep=4 / cplxblur=20.0 / qblur=0.5 / ip_ratio=1.40 / aq=2:1.00
Language : English
Default : Yes
Forced : No

Audio
ID : 2
Format : AC-3
Format/Info : Audio Coding 3
Mode extension : CM (complete main)
Format settings, Endianness : Big
Codec ID : A_AC3
Duration : 44mn 40s
Bit rate mode : Constant
Bit rate : 384 Kbps
Channel(s) : 6 channels
Channel positions : Front: L C R, Side: L R, LFE
Sampling rate : 48.0 KHz
Bit depth : 16 bits
Compression mode : Lossy
Stream size : 123 MiB (6%)
Default : Yes
Forced : No

Menu
00:00:00.000 : en:00:00:00.000
00:04:39.278 : en:00:04:39.278
00:11:16.591 : en:00:11:16.591
00:19:32.546 : en:00:19:32.546
00:29:21.968 : en:00:29:21.968
00:44:05.391 : en:00:44:05.391



   Похожие торренты   Торрент   Размер 
В этой теме нет новых непрочитанных сообщений. Ходячие мертвецы / The Walking Dead [S01-02] (2010) 1080p

5 | 16

31 ГБ

В этой теме нет новых непрочитанных сообщений. Ходячие мертвецы / The Walking Dead [S01] (2010) BDRip от HQCLUB

337 | 97

5.46 ГБ

В этой теме нет новых непрочитанных сообщений. Ходячие мертвецы / The Walking Dead [S01] (2010) BDRip от HQ-ViDEO

386 | 49

8.27 ГБ

В этой теме нет новых непрочитанных сообщений. Ходячие мертвецы / The Walking Dead [S01] (2010) BDRip от HELLYWOOD

63 | 17

6.83 ГБ

В этой теме нет новых непрочитанных сообщений. Ходячие мертвецы / The Walking Dead [S01] (2010) BDRip-AVC от HQCLUB

57 | 12

8.49 ГБ

В этой теме нет новых непрочитанных сообщений. Ходячие мертвецы / The Walking Dead [S01] (2010) BDRip 720p от HQ-ViDEO

18 | 12

21.29 ГБ

В этой теме нет новых непрочитанных сообщений. Ходячие мертвецы / The Walking Dead [S01-S04] ( 2010-2014) WEB-DLRip, HDTVRip, ВDRip-AVC 1080p | Fox Crime, LostFilm

43 | 110

96.23 ГБ




Вы не можете начинать темы
Вы не можете отвечать на сообщения
Вы не можете редактировать свои сообщения
Вы не можете удалять свои сообщения
Вы не можете добавлять вложения

Перейти:  
Для Мосгорсуда, Роскомнадзора и рекламодателей: mosgorsud-torrent[собачка]yandex.ru
 Вход
ppkBB3cker v.2 © 2008-2014 @ PPK
[ Time : 0.024s | 15 Queries | GZIP : Off ]

Торрент трекер RUTOR.IN, Не можете зайти на rutor.org? Какой новый адрес рутор? Какое зеркало рутор? Не работает rutor.org и зеркала? Тогда наш торрент специально для вас. Rutor.in неофициальное зеркало rutor. В случае если у Вас заблокирован rutor или вдруг Вы не можете на него зайти, то Вы без труда сможете скачать бесплатно и без рекламы последние новинки кино, игр, сериалов и прочего у нас, на Rutor.in. Не нужно использовать прокси, чтобы зайти на рутор, достаточно воспользоваться нашим ресурсом. Все новые фильмы, игры, сериалы, книги и музыка за 2013 и 2014 годы через торрент бесплатно. Скачивайте фильмы в хорошем качестве, игры для пк, xbox, playstation без регистрации. У нас вы найдете новые Зарубежные сериалы и Русские сериалы 2013, 2014, 2015 годов. Оставайтесь с нами, качайте любимые фильмы, игры, сериалы, книги и музыку.
cron