img image001 image001 image001 image001 image001 image001 image001 image001 image001 image001 image001 image001 image001 image001 image001

Planets Sun Sun Sun
Статистика раздачи
Автор: Снежана | Размер: 3.51 ГБ | Добавлен: 25 июл 2013
Раздают: 117    Качают: 9
Скачать торрент
Скачать торрент
Описание торрента

СообщениеДобавлено: 25 июл 2013 

#77

Жанр: драма, криминал
Год выпуска: 2011
Режиссер: Владимир Щегольков
В ролях: Евгений Цыганов, Мария Машкова, Александр Ильин (младший), Алексей Серебряков, Андрей Мерзликин, Дарья Мороз, Арнис Лицитис, Ивар Калныньш, Дмитрий Муляр, Гундарс Аболиньш, Андрис Кейшс, Вилис Даудзиньш, Аннете Саулите, Катрина Шмате, Мария Берзиня, Янис Паукштелло, Анда Зайце, Айварс Силиньш

Описание:
1949 год. Бывший фронтовик и бывший следователь Сергей Гастев отходит от розыскной деятельности, столкнувшись с неожиданной для себя проблемой чиновничьей взаимовыручки. Попытки восстановить справедливость едва не заканчиваются для него самого тюремной решеткой. Гастев решает ограничить свою деятельность преподаванием римского права в университете небольшого областного городка. В личной жизни Сергея тоже все не просто: роман с городским комсомольским лидером Людмилой Мишиной приходится тщательно скрывать…
Внезапно город потрясает ряд дерзких преступлений. На усиление в срочно созванный штаб по борьбе с бандитизмом решено привлечь и Гастева, как очень талантливого в прошлом сыщика. В помощь Сергею дают молоденького сельского участкового Илью Ропню. Однако пытаясь раскрыть одно преступление, герои невольно нападают на след другого — грандиозной финансовой аферы, связанной с 70-летием Сталина. Гастев начинает подозревать, что в афере замешана и его любимая женщина — Людмила Мишина. Чем больше погружается в дело Гастев, тем яснее становится, что ниточки преступления уходят на самый верх, и над героями нависает смертельная опасность…



Страна: Россия
Студия: Всемирные Русские Студии
Продолжительность: 4x~50 мин.
Перевод: Оригинал [Лицензия]
Cубтитры: нет
Качество: DVDRip (Исходник-DVD9 R5)
Формат: AVI
Видео: 720x400, 25 fps, XviD 64 ~2240 kbps
Аудио: Dolby AC3, 2 ch, 192 Кбит/сек, 48,0 КГц

Общее
Полное имя : E:СериалыZabytyj_(2011)_DVDRip�4_Zabytyj_(2011)_DVDRip.avi
Формат : AVI
Формат/Информация : Audio Video Interleave
Размер файла : 898 Мбайт
Продолжительность : 51 м.
Общий поток : 2438 Кбит/сек
Библиотека кодирования : VirtualDub build 34753/release

Видео
Идентификатор : 0
Формат : MPEG-4 Visual
Профиль формата : Advanced Simple@L5
Параметр BVOP формата : 2
Параметр QPel формата : Нет
Параметр GMC формата : Без точки перехода
Параметр матрицы формата : Default (H.263)
Режим смешивания : Сжатый битовый поток
Идентификатор кодека : XVID
Идентификатор кодека/Подсказка : XviD
Продолжительность : 51 м.
Битрейт : 2236 Кбит/сек
Ширина : 720 пикселей
Высота : 400 пикселей
Соотношение сторон : 16:9
Частота кадров : 25,000 кадров/сек
Цветовое пространство : YUV
Субдискретизация насыщенности : 4:2:0
Битовая глубина : 8 бит
Тип развёртки : Чересстрочная
Порядок развёртки : Верхнее поле первое
Метод сжатия : С потерями
Бит/(Пиксели*Кадры) : 0.311
Размер потока : 824 Мбайт (92%)
Библиотека кодирования : XviD 64

Аудио
Идентификатор : 1
Формат : AC-3
Формат/Информация : Audio Coding 3
Расширение режима : CM (complete main)
Параметр Endianness формата : Big
Идентификатор кодека : 2000
Продолжительность : 51 м.
Вид битрейта : Постоянный
Битрейт : 192 Кбит/сек
Каналы : 2 канала
Расположение каналов : Front: L R
Частота : 48,0 КГц
Битовая глубина : 16 бит
Метод сжатия : С потерями
Размер потока : 70,7 Мбайт (8%)
Выравнивание : Соединение по промежуткам
Продолжительность промежутка : 40 мс. (1,00 видеокадр)
Время предзагрузки промежутка : 512 мс.






















   Похожие торренты   Торрент   Размер 
В этой теме нет новых непрочитанных сообщений. Забытый [01-04 из 04] (2011) DVDRip

146 | 31

2.73 ГБ

В этой теме нет новых непрочитанных сообщений. Забытый (2011) DVDRip

234 | 31

2.05 ГБ

В этой теме нет новых непрочитанных сообщений. Забытый / Облдрамтеатр [01-04 из 04] (2011) DVDRip-AVC

21 | 5

2.73 ГБ

В этой теме нет новых непрочитанных сообщений. Забытый [01-04 из 04] (2011) DVDRip от MediaClub | КПК

427 | 49

847.18 МБ

В этой теме нет новых непрочитанных сообщений. Забытый [01-04 из 04] (2011) DVDRip | КПК от Generalfilm

4 | 3

633.49 МБ

В этой теме нет новых непрочитанных сообщений. Настоящие / Забытый [01-08 из 08] (2011) DVB

9 | 5

6.45 ГБ

В этой теме нет новых непрочитанных сообщений. Забытый / Облдрамтеатр [01-04 из 04] (2011) DVВRip-AVC

28 | 5

4.24 ГБ




Вы не можете начинать темы
Вы не можете отвечать на сообщения
Вы не можете редактировать свои сообщения
Вы не можете удалять свои сообщения
Вы не можете добавлять вложения

Перейти:  
Для Мосгорсуда, Роскомнадзора и рекламодателей: mosgorsud-torrent[собачка]yandex.ru
 Вход
ppkBB3cker v.2 © 2008-2014 @ PPK
[ Time : 0.065s | 16 Queries | GZIP : Off ]

Торрент трекер RUTOR.IN, Не можете зайти на rutor.org? Какой новый адрес рутор? Какое зеркало рутор? Не работает rutor.org и зеркала? Тогда наш торрент специально для вас. Rutor.in неофициальное зеркало rutor. В случае если у Вас заблокирован rutor или вдруг Вы не можете на него зайти, то Вы без труда сможете скачать бесплатно и без рекламы последние новинки кино, игр, сериалов и прочего у нас, на Rutor.in. Не нужно использовать прокси, чтобы зайти на рутор, достаточно воспользоваться нашим ресурсом. Все новые фильмы, игры, сериалы, книги и музыка за 2013 и 2014 годы через торрент бесплатно. Скачивайте фильмы в хорошем качестве, игры для пк, xbox, playstation без регистрации. У нас вы найдете новые Зарубежные сериалы и Русские сериалы 2013, 2014, 2015 годов. Оставайтесь с нами, качайте любимые фильмы, игры, сериалы, книги и музыку.
cron