img image001 image001 image001 image001 image001 image001 image001 image001 image001 image001 image001 image001 image001 image001 image001

Planets Sun Sun Sun
Статистика раздачи
Автор: Снежана | Размер: 4.11 ГБ | Добавлен: 25 июл 2013
Раздают: 31    Качают: 12
Скачать торрент
Скачать торрент
Описание торрента

СообщениеДобавлено: 25 июл 2013 

#77

Информация о фильме
Название: Стрелок
Оригинальное название: Стрелок
Год выхода: 2012
Жанр: боевик
Режиссер: Арман Геворгян
В ролях: Евгений Березовский, Юрий Кормушин, Виктор Фалалеев, Александр Песков, Абел Абелян, Виген Степанян, Сергей Апрельский

О фильме:
Каждый из них потерял своего напарника. Всё вместе они уйдут в горы, чтобы отомстить и остановить подготовку серии кровавых терактов. Кто из них выживет, кто выполнит задание, кто останется человеком, а кто станет предателем? Пока не известно. Главное, что в горах нет друзей и врагов! Есть только цель, долг, честь и желание выжить.



Выпущено: Россия / Студия Берг Саунд
Продолжительность: 2 х ~01:29:00
Озвучивание: Оригинальное [лицензия]

Файл
Формат: AVI
Качество: DVDRip
Видео: XviD 64, ~3000 kb/s, 720x400, 25,000 fps
Аудио: AC3, 256 kb/s, 2 ch, Front: L R

Общее
Полное имя : E:СериалыStrelok(2012)DVDRip�1_Strelok.(2012).DVDRip.avi
Формат : AVI
Формат/Информация : Audio Video Interleave
Профиль формата : OpenDML
Размер файла : 2,06 Гбайт
Продолжительность : 1 ч. 28 м.
Общий поток : 3314 Кбит/сек
Библиотека кодирования : VirtualDub build 34753/release

Видео
Идентификатор : 0
Формат : MPEG-4 Visual
Профиль формата : Advanced Simple@L5
Параметр BVOP формата : 2
Параметр QPel формата : Нет
Параметр GMC формата : Без точки перехода
Параметр матрицы формата : Default (H.263)
Режим смешивания : Сжатый битовый поток
Идентификатор кодека : XVID
Идентификатор кодека/Подсказка : XviD
Продолжительность : 1 ч. 28 м.
Битрейт : 3045 Кбит/сек
Ширина : 720 пикселей
Высота : 400 пикселей
Соотношение сторон : 16:9
Частота кадров : 25,000 кадров/сек
Цветовое пространство : YUV
Субдискретизация насыщенности : 4:2:0
Битовая глубина : 8 бит
Тип развёртки : Чересстрочная
Порядок развёртки : Верхнее поле первое
Метод сжатия : С потерями
Бит/(Пиксели*Кадры) : 0.423
Размер потока : 1,89 Гбайт (92%)
Библиотека кодирования : XviD 64

Аудио
Идентификатор : 1
Формат : AC-3
Формат/Информация : Audio Coding 3
Расширение режима : CM (complete main)
Параметр Endianness формата : Big
Идентификатор кодека : 2000
Продолжительность : 1 ч. 28 м.
Вид битрейта : Постоянный
Битрейт : 256 Кбит/сек
Каналы : 2 канала
Расположение каналов : Front: L R
Частота : 48,0 КГц
Битовая глубина : 16 бит
Метод сжатия : С потерями
Размер потока : 163 Мбайт (8%)
Выравнивание : Соединение по промежуткам
Продолжительность промежутка : 40 мс. (1,00 видеокадр)
Время предзагрузки промежутка : 512 мс.





























   Похожие торренты   Торрент   Размер 
В этой теме нет новых непрочитанных сообщений. Стрелок [01-04 из 04] (2012) DVDRip | Лицензия

193 | 19

2.72 ГБ

В этой теме нет новых непрочитанных сообщений. Стрелок (2012) DVDRip-AVC от New-Team

74 | 9

2.18 ГБ

В этой теме нет новых непрочитанных сообщений. Стрелок (2012) DVDRip от New-Team

344 | 19

1.46 ГБ

В этой теме нет новых непрочитанных сообщений. Стрелок (2012) DVDRip от New-Team

73 | 10

2.18 ГБ

В этой теме нет новых непрочитанных сообщений. Стрелок [S01-02] (2012-2014) DVDRip

276 | 107

5.45 ГБ

В этой теме нет новых непрочитанных сообщений. Стрелок [01-04 из 04] (2012) DVDRip | КПК от Kino@rena

67 | 4

585.89 МБ

В этой теме нет новых непрочитанных сообщений. Стрелок 2 [01-04 из 04] (2013) DVD9 от New-Team | Лицензия

118 | 29

7.18 ГБ




Вы не можете начинать темы
Вы не можете отвечать на сообщения
Вы не можете редактировать свои сообщения
Вы не можете удалять свои сообщения
Вы не можете добавлять вложения

Перейти:  
Для Мосгорсуда, Роскомнадзора и рекламодателей: mosgorsud-torrent[собачка]yandex.ru
 Вход
ppkBB3cker v.2 © 2008-2014 @ PPK
[ Time : 13.715s | 17 Queries | GZIP : Off ]
CGP output time : 0.010s | 7 Queries | GZIP : Off

Торрент трекер RUTOR.IN, Не можете зайти на rutor.org? Какой новый адрес рутор? Какое зеркало рутор? Не работает rutor.org и зеркала? Тогда наш торрент специально для вас. Rutor.in неофициальное зеркало rutor. В случае если у Вас заблокирован rutor или вдруг Вы не можете на него зайти, то Вы без труда сможете скачать бесплатно и без рекламы последние новинки кино, игр, сериалов и прочего у нас, на Rutor.in. Не нужно использовать прокси, чтобы зайти на рутор, достаточно воспользоваться нашим ресурсом. Все новые фильмы, игры, сериалы, книги и музыка за 2013 и 2014 годы через торрент бесплатно. Скачивайте фильмы в хорошем качестве, игры для пк, xbox, playstation без регистрации. У нас вы найдете новые Зарубежные сериалы и Русские сериалы 2013, 2014, 2015 годов. Оставайтесь с нами, качайте любимые фильмы, игры, сериалы, книги и музыку.