img image001 image001 image001 image001 image001 image001 image001 image001 image001 image001 image001 image001 image001 image001 image001

Planets Sun Sun Sun
Статистика раздачи
Автор: Снежана | Размер: 1.7 ГБ | Добавлен: 25 июл 2013, 07:58
Раздают: 1    Качают: 1
Скачать торрент
Скачать торрент
Описание торрента

СообщениеДобавлено: 25 июл 2013, 07:58 

#77

КвестоПушествие / JourneyQuest

Страна: США
Жанр: Комедия, Фэнтези
Год выпуска: 2010
Продолжительность: ~7 мин

Перевод: Одноголосый закадровый
Cубтитры: Русские
Оригинальная аудиодорожка: Английский

Режиссер: Мэтт Вэнсил / Matt Vancil

В ролях: Christian Doyle, Anne Kennedy, Brian Lewis, Kevin Pitman, Emilie Rommel Shimkus, Nathan Rice, Bryan Bender, Scott C. Brown, Kevin Inouye, Samara Lerman, Jennifer Page, Matt Shimkus

Описание:
Группа весьма бестолковых приключенцев, преследуемая собственным бардом, путешествует по лесам в поисках мифического артефакта...
Однако - не всё так просто, и сюжет готовит героям немало "очень неприятных поворотов".

Релиз группы:

Доп. информация:
Оригинальная дорожка и русские субтитры выложены отдельно в соответствующих папках!

Озвучивание Ворон работа над дорожкой Ворон

Качество видео: WEBRip 1080p - Сэмпл
Формат видео: MP4
Видео: 1920 x 1080 (16:9), 23.976 fps, 3947Kbps avg, 0.079 bit/pixel
Аудио: 44,1 kHz, AAC Dolby Digital, 2/0 (L,R) ch, ~128 kbps (Русский)
Аудио 2: 44,1 kHz, AAC Dolby Digital, 2/0 (L,R) ch, ~128 kbps (Английский) | (отдельно)
Формат субтитров: srt | (отдельно)




Формат : MPEG-4
Профиль формата : Base Media
Идентификатор кодека : isom
Размер файла : 221 Мбайт
Продолжительность : 7 м. 34 с.
Режим общего битрейта : Переменный
Общий поток : 4078 Кбит/сек
Дата кодирования : UTC 2012-05-19 20:05:00
Дата пометки : UTC 2012-05-19 20:05:00

Видео
Идентификатор : 1
Формат : AVC
Формат/Информация : Advanced Video Codec
Профиль формата : High@L4.0
Параметр CABAC формата : Да
Параметр ReFrames формата : 1 кадр
Параметр GOP формата : M=1, N=24
Идентификатор кодека : avc1
Идентификатор кодека/Информация : Advanced Video Coding
Продолжительность : 7 м. 34 с.
Битрейт : 3947 Кбит/сек
Максимальный битрейт : 9603 Кбит/сек
Ширина : 1920 пикселей
Высота : 1080 пикселей
Соотношение сторон : 16:9
Режим частоты кадров : Переменный
Частота кадров : 23,976 кадра/сек
Минимальная частота кадров : 23,810 кадра/сек
Максимальная частота кадров : 24,390 кадра/сек
Цветовое пространство : YUV
Субдискретизация насыщенности : 4:2:0
Битовая глубина : 8 бит
Тип развёртки : Прогрессивная
Бит/(Пиксели*Кадры) : 0.079
Размер потока : 214 Мбайт (97%)
Дата пометки : UTC 2012-05-19 20:05:05

Аудио
Идентификатор : 2
Формат : AAC
Формат/Информация : Advanced Audio Codec
Профиль формата : LC
Идентификатор кодека : 40
Продолжительность : 7 м. 34 с.
Вид битрейта : Переменный
Битрейт : 128 Кбит/сек
Максимальный битрейт : 180 Кбит/сек
Каналы : 2 канала
Расположение каналов : Front: L R
Частота : 44,1 КГц
Метод сжатия : С потерями
Размер потока : 6,92 Мбайт (3%)
Язык : Russian
Дата кодирования : UTC 2012-05-19 20:05:05
Дата пометки : UTC 2012-05-19 20:05:05



   Похожие торренты   Торрент   Размер 
В этой теме нет новых непрочитанных сообщений. КвестоПушествие / JourneyQuest [02x01-10 из 10] (2012) WEBRip 1080p от BTT-TEAM

2 | 1

2.43 ГБ

В этой теме нет новых непрочитанных сообщений. Эйдан 5 / Aidan 5 [01-10 из 16] (2010) WEBRip 720p от BTT-TEAM

0 | 1

1.45 ГБ

В этой теме нет новых непрочитанных сообщений. Эйдан 5 / Aidan 5 [01-16 из 16] (2010) WEBRip 720p от BTT-TEAM

3 | 1

2.36 ГБ

В этой теме нет новых непрочитанных сообщений. Вкусные отношения / Delicious Love [01 из 03] (2015) WEBRip 1080p от BTT-TEAM и SOUND-GROUP | L2

22 | 0

462.66 МБ

В этой теме нет новых непрочитанных сообщений. Игроки: Прирожденный игрок / The Gamers: Natural One [01 из 03] (2014) WEBRip 1080p от BTT-TEAM и SOUND-GROUP | L2

10 | 2

174.49 МБ

В этой теме нет новых непрочитанных сообщений. Игроки: Люди и Окружение / The Gamers: Humans and Households [1 из ?(3~4)] (2014) WEBRip 1080p от BTT-TEAM и SOUND-GROUP | L2

50 | 2

183.95 МБ

В этой теме нет новых непрочитанных сообщений. Игроки: Люди и Окружение / The Gamers: Humans and Households [1-2 из ?(3~4)] (2014) WEBRip 1080p от BTT-TEAM и SOUND-GROUP | L2

32 | 2

402.83 МБ




Вы не можете начинать темы
Вы не можете отвечать на сообщения
Вы не можете редактировать свои сообщения
Вы не можете удалять свои сообщения
Вы не можете добавлять вложения

Перейти:  
Для Мосгорсуда, Роскомнадзора и рекламодателей: mosgorsud-torrent[собачка]yandex.ru
Настройки
ppkBB3cker v.2 © 2008-2014 @ PPK
[ Time : 0.610s | 15 Queries | GZIP : Off ]
CGP [Extreme] output time : 0.00021s | 0 Queries | GZIP : Off

Торрент трекер RUTOR.IN, Не можете зайти на rutor.org? Какой новый адрес рутор? Какое зеркало рутор? Не работает rutor.org и зеркала? Тогда наш торрент специально для вас. Rutor.in неофициальное зеркало rutor. В случае если у Вас заблокирован rutor или вдруг Вы не можете на него зайти, то Вы без труда сможете скачать бесплатно и без рекламы последние новинки кино, игр, сериалов и прочего у нас, на Rutor.in. Не нужно использовать прокси, чтобы зайти на рутор, достаточно воспользоваться нашим ресурсом. Все новые фильмы, игры, сериалы, книги и музыка за 2013 и 2014 годы через торрент бесплатно. Скачивайте фильмы в хорошем качестве, игры для пк, xbox, playstation без регистрации. У нас вы найдете новые Зарубежные сериалы и Русские сериалы 2013, 2014, 2015 годов. Оставайтесь с нами, качайте любимые фильмы, игры, сериалы, книги и музыку.