img image001 image001 image001 image001 image001 image001 image001 image001 image001 image001 image001 image001 image001 image001 image001

Planets Sun Sun Sun
Статистика раздачи
Автор: Снежана | Размер: 22.47 ГБ | Добавлен: 25 июл 2013
Раздают: 0    Качают: 2
Скачать торрент
Скачать торрент
Описание торрента

СообщениеДобавлено: 25 июл 2013 

#77

Информация о фильме
Название: Однажды в Сказке
Оригинальное название: Once Upon a Time
Год выхода: 2011
Жанр: драма, фэнтези
Режиссер: Грег Биман, Марк Майлод, Дин Уайт
В ролях: Джиннифер Гудвин, Дженнифер Моррисон, Роберт Карлайл, Лана Паррилла, Джаред Гилмор, Джошуа Даллас, Рафаэль Сбардж, Меган Ори, Джеми Дорнан, Беверли Эллиотт

О сериале:
Сюжет фэнтези разворачивается в двух мирах — современном и сказочном. Беззаботная жизнь 28-летней Эммы Свон меняется, когда ее 10-летний сын Генри, от которого она отказалась много лет назад, находит Эмму и объявляет, что она является дочерью Прекрасного Принца и Белоснежки. Само собой разумеется, у мальчишки нет никаких сомнений, что параллельно нашему существует альтернативный сказочный мир — город Сторибрук, в котором в итоге оказывается Эмма. Постепенно героиня привязывается к необычному мальчику и странному городу, жители которого «забыли», кем они были в прошлом. А все из-за проклятия Злой Королевы (по совместительству приемной матери Генри), с помощью которого колдунья остановила время в сказочной стране. Однако стоит протянуть руку — и сказка оживет. Эпическая битва за будущее двух миров начинается, но, чтобы одержать победу, Эмме придется принять свою судьбу…


Страна: США
Продолжительность: ~00:43:00
Перевод: Полное дублирование (Невафильм)

Файл
Кодек: H.264
Качество: WEB-DL 720p
Видео: 1280 x 720, 23.976 fps, ~4000 kbps, 0.174 bit/pixel
Звук:
Rus: AC3, 48 kHz, 192 Kbps, 2 ch
Eng: AC3, 48 kHz, 384 Kbps, 6 ch
Субтитры: русские, английские

Семпл


D:РАЗДАЧИOnce Upon a Time.S01.720p.WEB-DL.Rus.Dub.-SBROOnce Upon a Time.S01E01.720p.WEB-DL.Rus.Dub.-SBRO.mkv
General
Unique ID : 203308251104416728351158343651688818131 (0x98F3BEB0150431D4A5D241029075A5D3)
Complete name : D:РАЗДАЧИOnce Upon a Time.S01.720p.WEB-DL.Rus.Dub.-SBROOnce Upon a Time.S01E01.720p.WEB-DL.Rus.Dub.-SBRO.mkv
Format : Matroska
File size : 1.41 GiB
Duration : 43mn 41s
Overall bit rate : 4 605 Kbps
Encoded date : UTC 2012-02-09 19:36:33
Writing application : mkvmerge v3.4.0 ('Rapunzel') сборка от May 15 2010 09:38:20
Writing library : libebml v0.8.0 + libmatroska v0.9.0
Video #1
ID : 1
Format : AVC
Format/Info : Advanced Video Codec
Format profile : High@L3.1
Format settings, CABAC : No
Format settings, ReFrames : 2 frames
Codec ID : V_MPEG4/ISO/AVC
Duration : 43mn 41s
Bit rate : 3 938 Kbps
Width : 1 280 pixels
Height : 720 pixels
Display aspect ratio : 16:9
Frame rate : 23.976 fps
Color space : YUV
Chroma subsampling : 4:2:0
Bit depth : 8 bits
Scan type : Progressive
Bits/(Pixel*Frame) : 0.178
Stream size : 1.20 GiB (86%)
Title : Once Upon a Time (2011) S01E01 - Pilot
Language : English
Color primaries : BT.709-5, BT.1361, IEC 61966-2-4, SMPTE RP177
Transfer characteristics : BT.709-5, BT.1361
Matrix coefficients : BT.709-5, BT.1361, IEC 61966-2-4 709, SMPTE RP177
Audio #2
ID : 2
Format : AC-3
Format/Info : Audio Coding 3
Mode extension : CM (complete main)
Codec ID : A_AC3
Duration : 43mn 41s
Bit rate mode : Constant
Bit rate : 192 Kbps
Channel(s) : 2 channels
Channel positions : Front: L R
Sampling rate : 48.0 KHz
Bit depth : 16 bits
Compression mode : Lossy
Stream size : 60.0 MiB (4%)
Title : AC3 DD 2.0 48.0 kHz @ 192 kbps - Невафильм
Language : Russian
Audio #3
ID : 3
Format : AC-3
Format/Info : Audio Coding 3
Mode extension : CM (complete main)
Codec ID : A_AC3
Duration : 43mn 41s
Bit rate mode : Constant
Bit rate : 384 Kbps
Channel(s) : 6 channels
Channel positions : Front: L C R, Side: L R, LFE
Sampling rate : 48.0 KHz
Bit depth : 16 bits
Compression mode : Lossy
Stream size : 120 MiB (8%)
Title : AC3 DD 5.1 48.0 kHz @ 384 kbps - Original
Language : English
Text #4
ID : 4
Format : UTF-8
Codec ID : S_TEXT/UTF8
Codec ID/Info : UTF-8 Plain Text
Title : Sub Rus
Language : Russian
Text #5
ID : 5
Format : UTF-8
Codec ID : S_TEXT/UTF8
Codec ID/Info : UTF-8 Plain Text
Title : Sub Eng
Language : English


1. Открыть торрент.
2. Снять галки с тех файлов торрента, которые мы не хотим закачивать. Оставляем только на нужных нам файлах (файле).
3. Нажать О.К.

Раздача ведётся путём добавления новых серий; при каждом добавлении создаётся новый торрент. Чтобы начать докачку новой серии, пользователям необходимо сделать следующее:
(1) остановить скачивание,
(2) удалить старый торрент у себя из клиента (старые серии удалять не надо),
(3) скачать новый торрент и запустить его у себя в клиенте вместо старого, при этом указать клиенту путь в старую папку куда и должно происходить скачивание новых серий.

Ваш клиент при этом должен произвести хеширование (проверку) старой папки (если не производит сам - помогите ему сделать это), и будет докачивать только те серии которых у вас ещё нет. Старые серии при этом не удаляются, а продолжают раздаваться!

Eсли вы уже удалили старые серии, то предотвратить повторную закачку старых серий можно, отжав галочку в соответствующих местах при запуске нового торрента. По возможности, желательно не удалять старые серии как можно дольше чтобы релизёр не столько продолжал раздавать старые серии, а смог сконцентрироваться на новых.


Добавлены 15-16 серии: 25.05.2012



   Похожие торренты   Торрент   Размер 
В этой теме нет новых непрочитанных сообщений. Однажды в сказке / Once Upon a Time [S01] (2011) BDRip 720p | Невафильм

79 | 50

49.25 ГБ

В этой теме нет новых непрочитанных сообщений. Однажды в Сказке / Once Upon a Time [S01-04] (2011-2015) WEB-DL 720p | Невафильм

34 | 117

124.7 ГБ

В этой теме нет новых непрочитанных сообщений. Однажды в сказке / Once Upon a Time [S01] (2011) WEB-DLRip | Невафильм

819 | 299

10.74 ГБ

В этой теме нет новых непрочитанных сообщений. Однажды в Сказке / Once Upon a Time [S01] (2011-2012) WEB-DLRip-AVC | Невафильм | D

184 | 77

11.25 ГБ

В этой теме нет новых непрочитанных сообщений. Однажды в сказке / Once Upon a Time [S01-05] (2011-2016) WEB-DLRip | Невафильм

94 | 404

55.42 ГБ

В этой теме нет новых непрочитанных сообщений. Однажды в Сказке / Once Upon a Time [S01-04] (2011-2015) WEB-DLRip | Невафильм

210 | 545

43.43 ГБ

В этой теме нет новых непрочитанных сообщений. Однажды в Сказке / Once Upon a Time [S01-03] (2011-2013) WEB-DLRip от Generalfilm | КПК | Невафильм

190 | 46

12.55 ГБ




Вы не можете начинать темы
Вы не можете отвечать на сообщения
Вы не можете редактировать свои сообщения
Вы не можете удалять свои сообщения
Вы не можете добавлять вложения

Перейти:  
Для Мосгорсуда, Роскомнадзора и рекламодателей: mosgorsud-torrent[собачка]yandex.ru
 Вход
ppkBB3cker v.2 © 2008-2014 @ PPK
[ Time : 0.046s | 15 Queries | GZIP : Off ]

cron