img image001 image001 image001 image001 image001 image001 image001 image001 image001 image001 image001 image001 image001 image001 image001

Planets Sun Sun Sun
Статистика раздачи
Автор: Снежана | Размер: 19.57 ГБ | Добавлен: 25 июл 2013
Раздают: 11    Качают: 6
Скачать торрент
Скачать торрент
Описание торрента

СообщениеДобавлено: 25 июл 2013 

#77

Информация о фильме
Название: Кулинар
Год выхода: 2012
Жанр: Боевик, криминал
Режиссер: Михаил Макаренко, Андрей Иванов
В ролях: Игорь Ботвин, Сергей Гамов, Роман Агеев, Игорь Ламба, Светлана Цвиченко, Кирилл Капица, Андрей Аверков, Юрий Уткин, Ольга Белявская, Евгений Сиротин, Александр Глинский, Рафаил Эйвазов, Денис Кириллов, Владимир Космидайло, Анатолий Ильченко, Александр Мосолов, Геннадий Макоев, Сергей Шкарбан, Сергей Федоров (VI), Стэнли Красовицки, Наталья Голованова, Евгений Катаев, Диана Дезмари, Елена Купрашевич, Антон Успенский

О фильме:
Феликс Малинин живет в небольшом городке. Среди друзей и знакомых, он слывет неплохим парнем, замкнутым чудаком, постоянно пропадающим в командировках. У Феликса есть небольшое пристрастие – он очень любит готовить, а также У НЕГО ЕСТЬ секрет, о котором знают лишь несколько человек. На самом деле он – сотрудник оперативно-розыскного бюро МВД. Его оперативный псевдоним - «Кулинар». Его работа – оперативное внедрение и сбор информации обо всём, что может представлять интерес для правоохранительных органов. Способный мгновенно перевоплощаться и любыми способами получить нужную информацию, к каждому делу Феликс подходит с особым вкусом – будто готовит очередное блюдо, а каждой операции дает кулинарное название..
Страна: Россия
Студия: StarMedia
Продолжительность: ~48 минут серия
Файл
Кодек: MPEG2
Качество: DVB
Видео: MPEG2 Video, 704x576 (4:3), 25.00fps, ~2600 Kbps, 0.262 bit/pixel
Звук: MPEG Audio, 48000Hz, 2ch, 192 Кбит/сек
Субтитры: Украинские (вшитые)

Семпл


Общее
Полное имя 10 серия__DVB by volk & UAOnline__RG Сериалы.mpg
Формат : MPEG-PS
Размер файла : 1004 Мбайт
Продолжительность : 48 м.
Режим общего битрейта : Переменный
Общий поток : 2903 Кбит/сек
Библиотека кодирования : (c) 1998-2010 Womble Multimedia, Inc. / MPEG Video Wizard DVD 5.0.0.114 (01/2010) / Nov 13 2010
Видео
Идентификатор : 224 (0xE0)
Формат : MPEG Video
Версия формата : Version 2
Профиль формата : Main@Main
Параметр BVOP формата : Да
Параметр матрицы формата : Выборочная
Параметр GOP формата : M=1, N=15
Продолжительность : 48 м.
Вид битрейта : Переменный
Битрейт : 2653 Кбит/сек
Максимальный битрейт : 15,0 Мбит/сек
Ширина : 704 пикселя
Высота : 576 пикселей
Соотношение сторон : 4:3
Частота кадров : 25,000 кадров/сек
Стандарт вещания : PAL
Цветовое пространство : YUV
Субдискретизация насыщенности : 4:2:0
Битовая глубина : 8 бит
Тип развёртки : Чересстрочная
Порядок развёртки : Верхнее поле первое
Метод сжатия : С потерями
Бит/(Пиксели*Кадры) : 0.262
Размер потока : 918 Мбайт (91%)
Библиотека кодирования : (c) 1998-2010 Womble Multimedia, Inc. / MPEG Video Wizard DVD 5.0.0.114 (01/2010) / Nov 13 2010
Аудио
Идентификатор : 192 (0xC0)
Формат : MPEG Audio
Версия формата : Version 1
Профиль формата : Layer 2
Продолжительность : 48 м.
Вид битрейта : Постоянный
Битрейт : 192 Кбит/сек
Каналы : 2 канала
Частота : 48,0 КГц
Метод сжатия : С потерями
Размер потока : 66,4 Мбайт (7%)


Релиз от:



   Похожие торренты   Торрент   Размер 
В этой теме нет новых непрочитанных сообщений. Кулинар [01-20 из 20] (2012) WEB-DL 720p от Generalfilm

14 | 11

27.14 ГБ

В этой теме нет новых непрочитанных сообщений. Кулинар [01-20 из 20] (2012) SATRip от Getty

287 | 88

10.95 ГБ

В этой теме нет новых непрочитанных сообщений. Кулинар [S01-S02] (2012- 2013) WEB-DLRip-AVC 720p

54 | 18

46.84 ГБ

В этой теме нет новых непрочитанных сообщений. Барышня и Кулинар [Выпуск 71-113] (2012) SATRip

0 | 2

13.65 ГБ

В этой теме нет новых непрочитанных сообщений. Барышня и Кулинар [Выпуск 01-70] (2010-2012) SATRip

0 | 10

20.1 ГБ

В этой теме нет новых непрочитанных сообщений. Кулинар 2 [01-20 из 20] (2013) WEB-DLRip | КПК

49 | 8

4.24 ГБ

В этой теме нет новых непрочитанных сообщений. Кулинар 2 [01-20 из 20] (2013) WEB-DL 720p от Nikolspup

105 | 14

12.09 ГБ




Вы не можете начинать темы
Вы не можете отвечать на сообщения
Вы не можете редактировать свои сообщения
Вы не можете удалять свои сообщения
Вы не можете добавлять вложения

Перейти:  
Для Мосгорсуда, Роскомнадзора и рекламодателей: mosgorsud-torrent[собачка]yandex.ru
 Вход
ppkBB3cker v.2 © 2008-2014 @ PPK
[ Time : 0.025s | 14 Queries | GZIP : On ]

Торрент трекер RUTOR.IN, Не можете зайти на rutor.org? Какой новый адрес рутор? Какое зеркало рутор? Не работает rutor.org и зеркала? Тогда наш торрент специально для вас. Rutor.in неофициальное зеркало rutor. В случае если у Вас заблокирован rutor или вдруг Вы не можете на него зайти, то Вы без труда сможете скачать бесплатно и без рекламы последние новинки кино, игр, сериалов и прочего у нас, на Rutor.in. Не нужно использовать прокси, чтобы зайти на рутор, достаточно воспользоваться нашим ресурсом. Все новые фильмы, игры, сериалы, книги и музыка за 2013 и 2014 годы через торрент бесплатно. Скачивайте фильмы в хорошем качестве, игры для пк, xbox, playstation без регистрации. У нас вы найдете новые Зарубежные сериалы и Русские сериалы 2013, 2014, 2015 годов. Оставайтесь с нами, качайте любимые фильмы, игры, сериалы, книги и музыку.