img image001 image001 image001 image001 image001 image001 image001 image001 image001 image001 image001 image001 image001 image001 image001

Planets Sun Sun Sun
Статистика раздачи
Автор: Снежана | Размер: 4.25 ГБ | Добавлен: 25 июл 2013
Раздают: 4    Качают: 2
Скачать торрент
Скачать торрент
Описание торрента

СообщениеДобавлено: 25 июл 2013 

#77

Информация о фильме
Название: Джонатан Крик
Оригинальное название: Jonathan Creek
Год выхода: 1997
Жанр: Драма, Криминал, Детектив
Режиссер: Сэнди Джонсон / Sandy Johnson, Кейт Вашингтон / Keith Washington, Маркус Мортимер / Marcus
В ролях: Алан Дейвис, Кэролайн Квентин, Стюарт Миллиган, Джулия Савалия, Эдриен Эдмондсон, Джеффри МакГайверн, Джессика Ллойд, Стивен Биллингтон, Аннабель Маллион, Элистер Петри

О фильме:
Джонатан Крик это гениальный помощник фокусника Адама Клауса, который придумывает все его магические трюки. Джонатан скрывает свой блестящий ум за непритязательной внешностью, но, по стечению обстоятельств, о его существовании узнает напористая журналистка Мадлен Магеллан. Мадлен специализируется на криминальных расследованиях и, без помощи Джонатана, ей не удастся защитить невиновного.
Страна: Великобритания
Продолжительность: ~01:28:59 + 4x00:59:00
Перевод: Профессиональный (многоголосый закадровый)

Файл
Кодек: XviD
Качество: DVDRip
Видео: MPEG4, XviD, 640x480 (4/3), 25.000 fps, 1 442 Kbps (0.188 bit/pixel)
Звук:
Аудио 1: AC-3, 48.0 KHz, 2 ch, 192 Kbps, CBR - русский
Аудио 2: AC-3, 48.0 KHz, 2 ch, 192 Kbps, CBR - английский

Семпл


Общее
Полное имя : K:МОИ РАЗДАЧИДжонатан Крик. Сезон 11x01 - The Wrestler's Tomb (Гробница борца).avi
Формат : AVI
Формат/Информация : Audio Video Interleave
Размер файла : 1,14 Гбайт
Продолжительность : 1 ч. 28 м.
Общий поток : 1841 Кбит/сек
Название фильма : Джонатан Крик. Сезон 1 / Jonathan Creek. Season 1 (1997)
Программа кодирования : VirtualDubMod 1.5.10.2 (build 2540/release)
Библиотека кодирования : VirtualDubMod build 2540/release
Видео
Идентификатор : 0
Формат : MPEG-4 Visual
Профиль формата : Advanced Simple@L5
Параметр BVOP формата : 2
Параметр QPel формата : Нет
Параметр GMC формата : Без точки перехода
Параметр матрицы формата : Default (MPEG)
Режим смешивания : Сжатый битовый поток
Идентификатор кодека : XVID
Идентификатор кодека/Подсказка : XviD
Продолжительность : 1 ч. 28 м.
Битрейт : 1442 Кбит/сек
Ширина : 640 пикселей
Высота : 480 пикселей
Соотношение сторон : 4:3
Частота кадров : 25,000 кадров/сек
Цветовое пространство : YUV
Субдискретизация насыщенности : 4:2:0
Битовая глубина : 8 бит
Тип развёртки : Прогрессивная
Метод сжатия : С потерями
Бит/(Пиксели*Кадры) : 0.188
Размер потока : 918 Мбайт (78%)
Библиотека кодирования : XviD 1.1.0 (UTC 2005-11-22)
Аудио #1
Идентификатор : 1
Формат : AC-3
Формат/Информация : Audio Coding 3
Расширение режима : CM (complete main)
Идентификатор кодека : 2000
Продолжительность : 1 ч. 28 м.
Вид битрейта : Постоянный
Битрейт : 192 Кбит/сек
Каналы : 2 канала
Расположение каналов : Front: L R
Частота : 48,0 КГц
Битовая глубина : 16 бит
Метод сжатия : С потерями
Размер потока : 122 Мбайт (10%)
Выравнивание : Разделение по промежуткам
Продолжительность промежутка : 40 мс. (1,00 видеокадр)
Время предзагрузки промежутка : 500 мс.
Заголовок : Профессиональный (многоголосый, закадровый) Домашний
Аудио #2
Идентификатор : 2
Формат : AC-3
Формат/Информация : Audio Coding 3
Расширение режима : CM (complete main)
Идентификатор кодека : 2000
Продолжительность : 1 ч. 28 м.
Вид битрейта : Постоянный
Битрейт : 192 Кбит/сек
Каналы : 2 канала
Расположение каналов : Front: L R
Частота : 48,0 КГц
Битовая глубина : 16 бит
Метод сжатия : С потерями
Размер потока : 122 Мбайт (10%)
Выравнивание : Разделение по промежуткам
Продолжительность промежутка : 40 мс. (1,00 видеокадр)
Время предзагрузки промежутка : 500 мс.
Заголовок : Английский



   Похожие торренты   Торрент   Размер 
В этой теме нет новых непрочитанных сообщений. Джонатан Крик / Jonathan Creek [S01-05] (1997 - 2004) DVDRip от Brazzass

57 | 62

15.03 ГБ

В этой теме нет новых непрочитанных сообщений. Джонатан Крик / Jonathan Creek [s02] (1998) DVDRip | L2

2 | 4

2.93 ГБ

В этой теме нет новых непрочитанных сообщений. Джонатан Крик. Обитель нечестивых / Jonathan Creek. Daemons' Roost (2016) HDTVRip 720p от Koenig | L1

23 | 1

1.62 ГБ

В этой теме нет новых непрочитанных сообщений. Джонатан Крик: Подсказка большого пальца / Jonathan Creek: Easter Monday Special - The Clue of the Savant's Thumb (2013) HDTVRip| L2

242 | 15

1.36 ГБ

В этой теме нет новых непрочитанных сообщений. Чайка по имени Джонатан Ливингстон / Jonathan Livingston Seagull (1973) DVDRip

190 | 4

1.37 ГБ

В этой теме нет новых непрочитанных сообщений. Джонатан / Jonathan (2016) WEB-DLRip | L

135 | 46

1.37 ГБ

В этой теме нет новых непрочитанных сообщений. Коронер Крик / Coroner Creek (1948) DVDRip by AndreSweet | L1

25 | 5

1.46 ГБ




Вы не можете начинать темы
Вы не можете отвечать на сообщения
Вы не можете редактировать свои сообщения
Вы не можете удалять свои сообщения
Вы не можете добавлять вложения

Перейти:  
Для Мосгорсуда, Роскомнадзора и рекламодателей: mosgorsud-torrent[собачка]yandex.ru
cron
 Вход
ppkBB3cker v.2 © 2008-2014 @ PPK
[ Time : 0.060s | 16 Queries | GZIP : Off ]

cron