img image001 image001 image001 image001 image001 image001 image001 image001 image001 image001 image001 image001 image001 image001 image001

Planets Sun Sun Sun
Статистика раздачи
Автор: Снежана | Размер: 8.7 ГБ | Добавлен: 25 июл 2013
Раздают: 96    Качают: 37
Скачать торрент
Скачать торрент
Описание торрента

СообщениеДобавлено: 25 июл 2013 

#77

Информация о фильме
Название: Серафима прекрасная
Год выхода: 2010
Жанр: Мелодрама
Режиссер: Каринэ Фолиянц
В ролях: Екатерина Порубель, Кирилл Гребенщиков, Елена Захарова, Николай Добрынин, Ольга Хохлова, Вячеслав Гришечкин, Светлана Аманова, Валентин Терехов, Жанна Терлецкая, Анатолий Зиновенко, Андрей Хворов, Александр Сигуев, Эльдар Лебедев, Ольга Сташкевич, Вероника Лысакова, Сергей Кудряшов, Алина Гафиулова, Ольга Гостемилова, Людмила Собко, Анастасия Добрынина, Влада Егорова, Сергей Шеховцов, Алевтина Добрынина, Александр Серский, Александр Порываев, Александр Науменко, Алексей Секирин, Антон Шурцов, Олег Драч, Сергей Чугин, Фархад Махмудов, Екатерина Карпушина, Алекс Рудольф Клепс, Максим Шпаковский, Полина Чувашова, Виктор Балабанов, Сергей Внуков, Александр Басаев, Василий Брыков

О фильме:
История любви сильной женщины Серафимы. Это любовный треугольник – на протяжении 20 лет она и ее соперница любят одного и того же мужчину. Кроме мелодрамы это еще и народное кино – рассказ об истории России через жизненный путь конкретного человека. В судьбе Серафимы отражается история всей страны – советские времена, перестройка и наши дни. Время действия – с 1980-х до настоящего времени. Это рассказ о том, как человек сделал свою личность сам. Героиня преодолела многое – болезнь ребенка, измену мужа и кучу разных трудных обстоятельств. Финалом станет счастливый конец, так как она заслужила у Господа счастье своим трудом, поведением и силой духа.
Страна: Россия
Продолжительность: 600 мин. (12 серий по ~50 мин)
Файл
Кодек: MPEG2
Качество: DVD5
Видео: PAL, 16:9, 720x576, ~7509 Кбит/сек, 0.722 Бит
Звук: AC3, 2.0, 224 Кбит/сек


Общее
Полное имя : H:Серафима прекрасная 2DVDДиск1VIDEO_TSVTS_01_1.VOB
Формат : MPEG-PS
Размер файла : 1000 Мбайт
Продолжительность : 17 м.
Режим общего битрейта : Переменный
Общий поток : 7870 Кбит/сек
Видео
Идентификатор : 224 (0xE0)
Формат : MPEG Video
Версия формата : Version 2
Профиль формата : Main@Main
Параметр BVOP формата : Да
Параметр матрицы формата : Выборочная
Продолжительность : 17 м.
Вид битрейта : Переменный
Битрейт : 7489 Кбит/сек
Максимальный битрейт : 9586 Кбит/сек
Ширина : 720 пикселей
Высота : 576 пикселей
Соотношение сторон : 16:9
Частота кадров : 25,000 кадров/сек
Стандарт вещания : PAL
Цветовое пространство : YUV
Субдискретизация насыщенности : 4:2:0
Битовая глубина : 8 бит
Тип развёртки : Прогрессивная
Порядок развёртки : Верхнее поле первое
Метод сжатия : С потерями
Бит/(Пиксели*Кадры) : 0.722
Размер потока : 952 Мбайт (95%)
Аудио
Идентификатор : 189 (0xBD)-128 (0x80)
Формат : AC-3
Формат/Информация : Audio Coding 3
Расширение режима : CM (complete main)
Режим смешивания : DVD-Video
Продолжительность : 17 м.
Вид битрейта : Постоянный
Битрейт : 224 Кбит/сек
Каналы : 2 канала
Расположение каналов : Front: L R
Частота : 48,0 КГц
Битовая глубина : 16 бит
Метод сжатия : С потерями
Размер потока : 28,5 Мбайт (3%)
Общее
Полное имя : H:Серафима прекрасная 2DVDДиск1VIDEO_TSVTS_01_2.VOB
Формат : MPEG-PS
Размер файла : 1000 Мбайт
Продолжительность : 17 м.
Режим общего битрейта : Переменный
Общий поток : 7890 Кбит/сек
Видео
Идентификатор : 224 (0xE0)
Формат : MPEG Video
Версия формата : Version 2
Профиль формата : Main@Main
Параметр BVOP формата : Да
Параметр матрицы формата : Выборочная
Параметр GOP формата : M=3, N=15
Продолжительность : 17 м.
Вид битрейта : Переменный
Битрейт : 7509 Кбит/сек
Максимальный битрейт : 9586 Кбит/сек
Ширина : 720 пикселей
Высота : 576 пикселей
Соотношение сторон : 16:9
Частота кадров : 25,000 кадров/сек
Стандарт вещания : PAL
Цветовое пространство : YUV
Субдискретизация насыщенности : 4:2:0
Битовая глубина : 8 бит
Тип развёртки : Прогрессивная
Порядок развёртки : Верхнее поле первое
Метод сжатия : С потерями
Бит/(Пиксели*Кадры) : 0.724
Размер потока : 952 Мбайт (95%)
Аудио
Идентификатор : 189 (0xBD)-128 (0x80)
Формат : AC-3
Формат/Информация : Audio Coding 3
Расширение режима : CM (complete main)
Режим смешивания : DVD-Video
Продолжительность : 17 м.
Вид битрейта : Постоянный
Битрейт : 224 Кбит/сек
Каналы : 2 канала
Расположение каналов : Front: L R
Частота : 48,0 КГц
Битовая глубина : 16 бит
Метод сжатия : С потерями
Задержка видео : -256 мс.
Размер потока : 28,4 Мбайт (3%)
Общее
Полное имя : H:Серафима прекрасная 2DVDДиск1VIDEO_TSVTS_01_3.VOB
Формат : MPEG-PS
Размер файла : 1000 Мбайт
Продолжительность : 19 с.
Режим общего битрейта : Переменный
Общий поток : 424 Мбит/сек
Видео
Идентификатор : 224 (0xE0)
Формат : MPEG Video
Версия формата : Version 2
Профиль формата : Main@Main
Параметр BVOP формата : Да
Параметр матрицы формата : Выборочная
Параметр GOP формата : M=3, N=15
Продолжительность : 19 с.
Вид битрейта : Переменный
Битрейт : 415 Мбит/сек
Максимальный битрейт : 9586 Кбит/сек
Ширина : 720 пикселей
Высота : 576 пикселей
Соотношение сторон : 16:9
Частота кадров : 25,000 кадров/сек
Стандарт вещания : PAL
Цветовое пространство : YUV
Субдискретизация насыщенности : 4:2:0
Битовая глубина : 8 бит
Тип развёртки : Прогрессивная
Порядок развёртки : Верхнее поле первое
Метод сжатия : С потерями
Бит/(Пиксели*Кадры) : 40.030
Размер потока : 980 Мбайт (98%)
Аудио
Идентификатор : 189 (0xBD)-128 (0x80)
Формат : AC-3
Формат/Информация : Audio Coding 3
Расширение режима : CM (complete main)
Режим смешивания : DVD-Video
Продолжительность : 19 с.
Вид битрейта : Постоянный
Битрейт : 224 Кбит/сек
Каналы : 2 канала
Расположение каналов : Front: L R
Частота : 48,0 КГц
Битовая глубина : 16 бит
Метод сжатия : С потерями
Задержка видео : -224 мс.
Размер потока : 541 Кбайт (0%)
Общее
Полное имя : H:Серафима прекрасная 2DVDДиск1VIDEO_TSVTS_01_4.VOB
Формат : MPEG-PS
Размер файла : 1000 Мбайт
Продолжительность : 18 м.
Режим общего битрейта : Переменный
Общий поток : 7572 Кбит/сек
Видео
Идентификатор : 224 (0xE0)
Формат : MPEG Video
Версия формата : Version 2
Профиль формата : Main@Main
Параметр BVOP формата : Да
Параметр матрицы формата : Выборочная
Параметр GOP формата : M=3, N=15
Продолжительность : 18 м.
Вид битрейта : Переменный
Битрейт : 7197 Кбит/сек
Максимальный битрейт : 9586 Кбит/сек
Ширина : 720 пикселей
Высота : 576 пикселей
Соотношение сторон : 16:9
Частота кадров : 25,000 кадров/сек
Стандарт вещания : PAL
Цветовое пространство : YUV
Субдискретизация насыщенности : 4:2:0
Битовая глубина : 8 бит
Тип развёртки : Прогрессивная
Порядок развёртки : Верхнее поле первое
Метод сжатия : С потерями
Бит/(Пиксели*Кадры) : 0.694
Размер потока : 950 Мбайт (95%)
Аудио
Идентификатор : 189 (0xBD)-128 (0x80)
Формат : AC-3
Формат/Информация : Audio Coding 3
Расширение режима : CM (complete main)
Режим смешивания : DVD-Video
Продолжительность : 18 м.
Вид битрейта : Постоянный
Битрейт : 224 Кбит/сек
Каналы : 2 канала
Расположение каналов : Front: L R
Частота : 48,0 КГц
Битовая глубина : 16 бит
Метод сжатия : С потерями
Задержка видео : -288 мс.
Размер потока : 29,6 Мбайт (3%)
Общее
Полное имя : H:Серафима прекрасная 2DVDДиск1VIDEO_TSVTS_01_5.VOB
Формат : MPEG-PS
Размер файла : 404 Мбайт
Продолжительность : 28 м.
Режим общего битрейта : Переменный
Общий поток : 2000 Кбит/сек
Видео
Идентификатор : 224 (0xE0)
Формат : MPEG Video
Версия формата : Version 2
Профиль формата : Main@Main
Параметр BVOP формата : Да
Параметр матрицы формата : Выборочная
Параметр GOP формата : M=3, N=15
Продолжительность : 28 м.
Вид битрейта : Переменный
Битрейт : 1736 Кбит/сек
Максимальный битрейт : 9586 Кбит/сек
Ширина : 720 пикселей
Высота : 576 пикселей
Соотношение сторон : 16:9
Частота кадров : 25,000 кадров/сек
Стандарт вещания : PAL
Цветовое пространство : YUV
Субдискретизация насыщенности : 4:2:0
Битовая глубина : 8 бит
Тип развёртки : Прогрессивная
Порядок развёртки : Верхнее поле первое
Метод сжатия : С потерями
Бит/(Пиксели*Кадры) : 0.167
Размер потока : 351 Мбайт (87%)
Аудио
Идентификатор : 189 (0xBD)-128 (0x80)
Формат : AC-3
Формат/Информация : Audio Coding 3
Расширение режима : CM (complete main)
Режим смешивания : DVD-Video
Продолжительность : 28 м.
Вид битрейта : Постоянный
Битрейт : 224 Кбит/сек
Каналы : 2 канала
Расположение каналов : Front: L R
Частота : 48,0 КГц
Битовая глубина : 16 бит
Метод сжатия : С потерями
Задержка видео : -264 мс.
Размер потока : 45,2 Мбайт (11%)



   Похожие торренты   Торрент   Размер 
В этой теме нет новых непрочитанных сообщений. Серафима прекрасная [01-12 из 12] (2010) TVRip от КинозалSAT

277 | 55

7.02 ГБ

В этой теме нет новых непрочитанных сообщений. Серафима прекрасная [12 серий из 12] (2010) SATRip

1196 | 344

6.46 ГБ

В этой теме нет новых непрочитанных сообщений. VA - Песни на музыку Серафима Туликова - Золотая коллекция ретро (2010) MP3

5 | 0

155.23 МБ

В этой теме нет новых непрочитанных сообщений. Сборник - Песни на музыку Серафима Туликова. Золотая коллекция Ретро (2010) MP3 от BestSound ExKinoRay

98 | 8

154.93 МБ

В этой теме нет новых непрочитанных сообщений. Достоевский [01-08 из 08] (2010) 2xDVD5 от Youtracker | custom

54 | 3

7.78 ГБ

В этой теме нет новых непрочитанных сообщений. Magical Flight 8 (2010) 2xDVD5 от Brazzass

3 | 5

8.74 ГБ

В этой теме нет новых непрочитанных сообщений. Magical Flight 9 (2010) 2xDVD5 от Brazzass

4 | 5

8.74 ГБ




Вы не можете начинать темы
Вы не можете отвечать на сообщения
Вы не можете редактировать свои сообщения
Вы не можете удалять свои сообщения
Вы не можете добавлять вложения

Перейти:  
Для Мосгорсуда, Роскомнадзора и рекламодателей: mosgorsud-torrent[собачка]yandex.ru
 Вход
ppkBB3cker v.2 © 2008-2014 @ PPK
[ Time : 0.067s | 14 Queries | GZIP : Off ]

Торрент трекер RUTOR.IN, Не можете зайти на rutor.org? Какой новый адрес рутор? Какое зеркало рутор? Не работает rutor.org и зеркала? Тогда наш торрент специально для вас. Rutor.in неофициальное зеркало rutor. В случае если у Вас заблокирован rutor или вдруг Вы не можете на него зайти, то Вы без труда сможете скачать бесплатно и без рекламы последние новинки кино, игр, сериалов и прочего у нас, на Rutor.in. Не нужно использовать прокси, чтобы зайти на рутор, достаточно воспользоваться нашим ресурсом. Все новые фильмы, игры, сериалы, книги и музыка за 2013 и 2014 годы через торрент бесплатно. Скачивайте фильмы в хорошем качестве, игры для пк, xbox, playstation без регистрации. У нас вы найдете новые Зарубежные сериалы и Русские сериалы 2013, 2014, 2015 годов. Оставайтесь с нами, качайте любимые фильмы, игры, сериалы, книги и музыку.