img image001 image001 image001 image001 image001 image001 image001 image001 image001 image001 image001 image001 image001 image001 image001

Planets Sun Sun Sun
Статистика раздачи
Автор: Снежана | Размер: 12.3 ГБ | Добавлен: 25 июл 2013, 08:08
Раздают: 13    Качают: 6
Скачать торрент
Скачать торрент
Описание торрента

СообщениеДобавлено: 25 июл 2013, 08:08 

#77

Информация о фильме
Название: Добиться или сломаться / Гимнастки
Оригинальное название: Make It or Break It
Год выхода: 2012
Жанр: драма, спорт
Режиссер: Крис Грисмер, Дэвид Пэймер, Стив Майнер
В ролях: Захари Абель, Челси Хоббс, Айла Келл, Джози Лорен, Кэсси Сербо, Сьюзэн Уорд, Кендес Камерон Буре, Пери Гилпин, Нил Джексон, Энтони Старк и др.

О фильме:
Боулдер, Колорадо — город, в котором располагается одна из лучших тренировочных баз по спортивной гимнастике. Это также дом для трех олимпийских надежд — целеустремленной Пэйсон Килер, соперничающей со всеми Лорен Теннер и пользующейся спросом Кейли Круз. Все они являются главными кандидатами на первые три места в национальном чемпионате.

Страна: США
Студия: ABC Family
Продолжительность: ~ 00:42:00
Перевод: Профессиональный многоголосый - NewStudio

Файл
Кодек: H.264
Качество: WEBDLRip 720p
Видео: 4111 kb/s, 1280x720
Звук: Русский / Английский: AC3, 384 kb/s


General
Unique ID : 173212124108817948090230004012101302632 (0x824F711050D7154988D81AF320DE7968)
Complete name : Make.It.or.Break.It.s03e02.WEBDL.720p.NewStudio.TV.mkv
Format : Matroska
Format version : Version 2
File size : 1.52 GiB
Duration : 43mn 44s
Overall bit rate : 4 990 Kbps
Encoded date : UTC 2012-04-23 12:58:10
Writing application : mkvmerge v2.9.9 ('Tutu') built on Nov 25 2009 21:13:32
Writing library : libebml v0.7.9 + libmatroska v0.8.1

Video
ID : 1
Format : AVC
Format/Info : Advanced Video Codec
Format profile : High@L3.1
Format settings, CABAC : No
Format settings, ReFrames : 2 frames
Codec ID : V_MPEG4/ISO/AVC
Duration : 43mn 44s
Bit rate : 4 122 Kbps
Width : 1 280 pixels
Height : 720 pixels
Display aspect ratio : 16:9
Frame rate : 23.976 fps
Color space : YUV
Chroma subsampling : 4:2:0
Bit depth : 8 bits
Scan type : Progressive
Bits/(Pixel*Frame) : 0.187
Stream size : 1.26 GiB (83%)
Language : English
Default : No
Forced : No
Color primaries : BT.709-5, BT.1361, IEC 61966-2-4, SMPTE RP177
Transfer characteristics : BT.709-5, BT.1361
Matrix coefficients : BT.709-5, BT.1361, IEC 61966-2-4 709, SMPTE RP177

Audio #1
ID : 2
Format : AC-3
Format/Info : Audio Coding 3
Mode extension : CM (complete main)
Codec ID : A_AC3
Duration : 43mn 44s
Bit rate mode : Constant
Bit rate : 384 Kbps
Channel(s) : 6 channels
Channel positions : Front: L C R, Side: L R, LFE
Sampling rate : 48.0 KHz
Bit depth : 16 bits
Compression mode : Lossy
Stream size : 120 MiB (8%)
Default : Yes
Forced : Yes

Audio #2
ID : 3
Format : AC-3
Format/Info : Audio Coding 3
Mode extension : CM (complete main)
Codec ID : A_AC3
Duration : 43mn 44s
Bit rate mode : Constant
Bit rate : 384 Kbps
Channel(s) : 6 channels
Channel positions : Front: L C R, Side: L R, LFE
Sampling rate : 48.0 KHz
Bit depth : 16 bits
Compression mode : Lossy
Stream size : 120 MiB (8%)
Language : English
Default : No
Forced : No



Релиз:

1. Открыть торрент.
2. Снять галки с тех файлов торрента, которые мы не хотим закачивать. Оставляем только на нужных нам файлах (файле).
3. Нажать О.К.

Раздача ведётся путём добавления новых серий; при каждом добавлении создаётся новый торрент. Чтобы начать докачку новой серии, пользователям необходимо сделать следующее:
(1) остановить скачивание,
(2) удалить старый торрент у себя из клиента (старые серии удалять не надо),
(3) скачать новый торрент и запустить его у себя в клиенте вместо старого, при этом указать клиенту путь в старую папку куда и должно происходить скачивание новых серий.

Ваш клиент при этом должен произвести хеширование (проверку) старой папки (если не производит сам - помогите ему сделать это), и будет докачивать только те серии которых у вас ещё нет. Старые серии при этом не удаляются, а продолжают раздаваться!

Eсли вы уже удалили старые серии, то предотвратить повторную закачку старых серий можно, отжав галочку в соответствующих местах при запуске нового торрента. По возможности, желательно не удалять старые серии как можно дольше чтобы релизёр не столько продолжал раздавать старые серии, а смог сконцентрироваться на новых.


Добавлены 7-8 серии: 07.06.2012



   Похожие торренты   Торрент   Размер 
В этой теме нет новых непрочитанных сообщений. Добиться или сломаться / Гимнастки / Make It or Break It [S03] (2012) WEBDLRip | NewStudio

22 | 2

4.3 ГБ

В этой теме нет новых непрочитанных сообщений. Гимнастки / Добиться или сломаться / Make It or Break It [S03] (2012) WEB-DL 720p | MTV Russia

18 | 4

11.22 ГБ

В этой теме нет новых непрочитанных сообщений. Гимнастки / Добиться или сломаться / Make It or Break It [S02] (2010-2011) WEB-DLRip | NewStudio

14 | 8

7.8 ГБ

В этой теме нет новых непрочитанных сообщений. Гимнастки / Добиться или сломаться / Make It or Break It [S02] (2010-2011) WEB-DL 720p | MTV Russia

9 | 14

27.84 ГБ

В этой теме нет новых непрочитанных сообщений. Гимнастки / Добиться или сломаться / Make It or Break It [S01] (2009-2010) WEB-DL 720p | MTV Russia

39 | 15

28.3 ГБ

В этой теме нет новых непрочитанных сообщений. Гимнастки / Добиться или сломаться / Make It or Break It [S01] (2009-2010) DVDRip от Riper.AM

124 | 24

9.26 ГБ

В этой теме нет новых непрочитанных сообщений. Бен и Кейт / Ben and Kate / [S01] (2012-2013) WEBDLRip | NewStudio

0 | 1

3.64 ГБ




Вы не можете начинать темы
Вы не можете отвечать на сообщения
Вы не можете редактировать свои сообщения
Вы не можете удалять свои сообщения
Вы не можете добавлять вложения

Перейти:  
Для Мосгорсуда, Роскомнадзора и рекламодателей: mosgorsud-torrent[собачка]yandex.ru
Настройки
ppkBB3cker v.2 © 2008-2014 @ PPK
[ Time : 0.027s | 16 Queries | GZIP : Off ]
CGP [Extreme] output time : 0.00013s | 0 Queries | GZIP : Off

Торрент трекер RUTOR.IN, Не можете зайти на rutor.org? Какой новый адрес рутор? Какое зеркало рутор? Не работает rutor.org и зеркала? Тогда наш торрент специально для вас. Rutor.in неофициальное зеркало rutor. В случае если у Вас заблокирован rutor или вдруг Вы не можете на него зайти, то Вы без труда сможете скачать бесплатно и без рекламы последние новинки кино, игр, сериалов и прочего у нас, на Rutor.in. Не нужно использовать прокси, чтобы зайти на рутор, достаточно воспользоваться нашим ресурсом. Все новые фильмы, игры, сериалы, книги и музыка за 2013 и 2014 годы через торрент бесплатно. Скачивайте фильмы в хорошем качестве, игры для пк, xbox, playstation без регистрации. У нас вы найдете новые Зарубежные сериалы и Русские сериалы 2013, 2014, 2015 годов. Оставайтесь с нами, качайте любимые фильмы, игры, сериалы, книги и музыку.