img image001 image001 image001 image001 image001 image001 image001 image001 image001 image001 image001 image001 image001 image001 image001

Planets Sun Sun Sun
Статистика раздачи
Автор: Снежана | Размер: 7.49 ГБ | Добавлен: 25 июл 2013
Раздают: 84    Качают: 9
Скачать торрент
Скачать торрент
Описание торрента

СообщениеДобавлено: 25 июл 2013 

#77

Информация о фильме
Название: Гранд отель
Оригинальное название: Gran Hotel
Год выхода: 2011
Жанр: драма
Режиссер: Карлос Седес /Carlos Sedes/, Сильвия Квир /Sílvia Quer/, Хорхе Санчес-Кабесудо /Jorge Sánchez-Cabezudo/
В ролях: Адриана Осорес /Adriana Ozores/, Амайя Саламанка /Amaia Salamanca/, Йон Гонзалез /Yon González/, Элой Асорин /Eloy Azorín/, Феле Мартинес /Fele Martínez/, Мануэль Де Блас /Manuel de Blas/, Пеп Антон Муньос /Pep Anton Muñoz/, Педро Алонсо /Pedro Alonso/, Марта Ларральде /Marta Larralde/

О фильме:
Действие происходит в 1905 году. Молодой человек Хулио приезжает в идиллическое место Гран Отель, где он будет расследовать исчезновение своей сестры, притворившись официантом. Но на пути его расследования встретится Алисия Аларкон, член семьи, которая владеет отелем и которая станет единственным человеком, готовым помочь ему раскрыть правду. Между ними начнется невозможная история любви. Им мешает то обстоятельство, что Алисия помолвлена с Диего, амбициозным юношей, который готов на все, чтобы стать директором Гран Отеля.

Страна: Испания
Студия: Antena 3
Продолжительность: ~01:15:00 серия
Перевод: Дублированный [Объединение "Русский дубляж" по заказу ТК"Домашний"] / Оригинал (испанский)

Файл
Кодек: XviD / AC3
Качество: SATRip
Видео: MPEG4, XviD, 704x400 (16/9), 25.000 fps, 1 318 Kbps (0.187 bit/pixel)
Звук:
Аудио 1: AC3, 48.0 KHz, 2 ch, 192 Kbps, CBR - русский
Аудио 2: MP3, 48.0 KHz, 2 ch, 128 Kbps, CBR - испанский

Семпл

Общее
Полное имя : E:Gran Hotel. Season 11x01 - La doncella en el estanque.avi
Формат : AVI
Формат/Информация : Audio Video Interleave
Размер файла : 847 Мбайт
Продолжительность : 1 ч. 11 м.
Общий поток : 1652 Кбит/сек
Название фильма : Гранд Отель. Сезон 1 / Gran Hotel. Season 1 (2011)
Программа кодирования : VirtualDubMod 1.5.10.2 (build 2540/release)
Библиотека кодирования : VirtualDubMod build 2540/release

Видео
Идентификатор : 0
Формат : MPEG-4 Visual
Профиль формата : Advanced Simple@L5
Параметр BVOP формата : 2
Параметр QPel формата : Нет
Параметр GMC формата : Без точки перехода
Параметр матрицы формата : Default (H.263)
Идентификатор кодека : XVID
Идентификатор кодека/Подсказка : XviD
Продолжительность : 1 ч. 11 м.
Битрейт : 1318 Кбит/сек
Ширина : 704 пикселя
Высота : 400 пикселей
Соотношение сторон : 16:9
Частота кадров : 25,000 кадров/сек
Цветовое пространство : YUV
Субдискретизация насыщенности : 4:2:0
Битовая глубина : 8 бит
Тип развёртки : Прогрессивная
Метод сжатия : С потерями
Бит/(Пиксели*Кадры) : 0.187
Размер потока : 676 Мбайт (80%)
Библиотека кодирования : XviD 1.2.1 (UTC 2008-12-04)

Аудио #1
Идентификатор : 1
Формат : AC-3
Формат/Информация : Audio Coding 3
Расширение режима : CM (complete main)
Идентификатор кодека : 2000
Продолжительность : 1 ч. 11 м.
Вид битрейта : Постоянный
Битрейт : 192 Кбит/сек
Каналы : 2 канала
Расположение каналов : Front: L R
Частота : 48,0 КГц
Битовая глубина : 16 бит
Метод сжатия : С потерями
Размер потока : 98,5 Мбайт (12%)
Выравнивание : Соединение по промежуткам
Продолжительность промежутка : 160 мс. (4,00 видеокадра)
Время предзагрузки промежутка : 640 мс.
Заголовок : Профессиональный (полное дублирование) Домашний

Аудио #2
Идентификатор : 2
Формат : MPEG Audio
Версия формата : Version 1
Профиль формата : Layer 3
Идентификатор кодека : 55
Идентификатор кодека/Подсказка : MP3
Продолжительность : 1 ч. 11 м.
Вид битрейта : Постоянный
Битрейт : 128 Кбит/сек
Каналы : 2 канала
Частота : 48,0 КГц
Метод сжатия : С потерями
Размер потока : 65,6 Мбайт (8%)
Выравнивание : Соединение по промежуткам
Продолжительность промежутка : 24 мс. (0,60 видеокадр)
Время предзагрузки промежутка : 504 мс.
Заголовок : Испанский


Доп. информация: Нет перевода на вырезанные на "Домашнем" минутный кусок в середине 3 серии и куски в начале и конце каждой серий "в предыдущих и в следующих сериях" (1-5 и 6-9 серии на Домашнем были смонтированы в 2 здоровые полнометражки)

В сентябре в Испании стартует 2 сезон, в котором будет 17 серий.



   Похожие торренты   Торрент   Размер 
В этой теме нет новых непрочитанных сообщений. Гранд Отель / Gran Hotel [S01-03] (2011-2013) HDTVRip-AVC | D, P

26 | 52

38.95 ГБ

В этой теме нет новых непрочитанных сообщений. Гранд Отель / Gran Hotel [S03] (2013) HDTVRip | Sub

0 | 2

19.21 ГБ

В этой теме нет новых непрочитанных сообщений. Гранд Отель / Gran Hotel [S03] (2013) HDTVRip 720p | Sub

7 | 16

33.77 ГБ

В этой теме нет новых непрочитанных сообщений. Гранд Отель / Gran Hotel [03х06-13] (2013) HDTVRip | L1

60 | 21

9.38 ГБ

В этой теме нет новых непрочитанных сообщений. Гранд Отель / Gran Hotel [S02] (2012) HDTVRip | DreamRecords

83 | 8

6.55 ГБ

В этой теме нет новых непрочитанных сообщений. Гранд Отель / Gran Hotel [03х05-13] (2013) HDTV 720p | L1

4 | 7

13.42 ГБ

В этой теме нет новых непрочитанных сообщений. Гранд Отель / Gran Hotel [S02] (2012) HDTV 720p | DreamRecords

6 | 4

16.88 ГБ




Вы не можете начинать темы
Вы не можете отвечать на сообщения
Вы не можете редактировать свои сообщения
Вы не можете удалять свои сообщения
Вы не можете добавлять вложения

Перейти:  
Для Мосгорсуда, Роскомнадзора и рекламодателей: mosgorsud-torrent[собачка]yandex.ru
 Вход
ppkBB3cker v.2 © 2008-2014 @ PPK
[ Time : 0.026s | 14 Queries | GZIP : Off ]

Торрент трекер RUTOR.IN, Не можете зайти на rutor.org? Какой новый адрес рутор? Какое зеркало рутор? Не работает rutor.org и зеркала? Тогда наш торрент специально для вас. Rutor.in неофициальное зеркало rutor. В случае если у Вас заблокирован rutor или вдруг Вы не можете на него зайти, то Вы без труда сможете скачать бесплатно и без рекламы последние новинки кино, игр, сериалов и прочего у нас, на Rutor.in. Не нужно использовать прокси, чтобы зайти на рутор, достаточно воспользоваться нашим ресурсом. Все новые фильмы, игры, сериалы, книги и музыка за 2013 и 2014 годы через торрент бесплатно. Скачивайте фильмы в хорошем качестве, игры для пк, xbox, playstation без регистрации. У нас вы найдете новые Зарубежные сериалы и Русские сериалы 2013, 2014, 2015 годов. Оставайтесь с нами, качайте любимые фильмы, игры, сериалы, книги и музыку.