img image001 image001 image001 image001 image001 image001 image001 image001 image001 image001 image001 image001 image001 image001 image001

Planets Sun Sun Sun
Статистика раздачи
Автор: Снежана | Размер: 8.92 ГБ | Добавлен: 25 июл 2013
Раздают: 372    Качают: 44
Скачать торрент
Скачать торрент
Описание торрента

СообщениеДобавлено: 25 июл 2013 

Игра престолов [Сезон 2] / Game of Thrones [Season 2] (2012) HDTVRip
Релиз от HQ-ViDEO

«You win or you die»
Информация о фильме:
Название: Игра престолов
Оригинальное название: Game of Thrones
Год выхода: 2012
Жанр: Фэнтези, Драма, Приключения
Автор идеи: Дэвид Бениофф / David Benioff, Джордж Р.Р. Мартин / George R.R. Martin
В ролях: Лина Хиди / Lena Headey (Cersei Lannister), Питер Динклэйдж / Peter Dinklage (Tyrion Lannister), Мишель Фэйрли / Michelle Fairley (Catelyn Stark), Эмилия Кларк / Emilia Clarke (Daenerys Targaryen), Кит Харингтон / Kit Harington (Jon Snow), Шон Бин / Sean Bean (Eddard Stark), Николай Костер-Вальдау / Nikolaj Coster-Waldau (Jaime Lannister), Айэйн Глен / Iain Glen (Ser Jorah Mormont), Марк Эдди / Mark Addy (Robert Baratheon), Эйден Гиллен / Aidan Gillen (Petyr Baelish), Элфи Оуэн-Аллен / Alfie Owen-Allen (Theon Greyjoy), Мэйси Уильямс / Maisie Williams (Arya Stark), Софи Тернер / Sophie Turner (Sansa Stark), Джек Глисон / Jack Gleeson (Joffrey Baratheon), Исаак Хемпстид-Райт / Isaac Hempstead Wright (Bran Stark), Ричард Мэдден / Richard Madden (Robb Stark), Джером Флинн / Jerome Flynn (Bronn), Конлет Хилл / Conleth Hill (Lord Varys), Дональд Самптер / Donald Sumpter (Maester Luwin), Рори МакКанн / Rory McCann (Sandor Clegane), Рон Донаки / Ron Donachie (Ser Rodrik Cassel), Джулиан Гловер / Julian Glover (Grand Maester Pycelle), Амрита Ачария / Amrita Acharia (Irri), Чарльз Дэнс / Charles Dance (Tywin Lannister), Джон Брэдли / John Bradley (Samwell Tarly), Кристиан Нэйрн / Kristian Nairn (Hodor), Сибель Кекилли / Sibel Kekilli (Shae), Марк Стэнли / Mark Stanley (Grenn), Роксанна МакКи / Roxanne McKee (Doreah), Наталия Тена / Natalia Tena (Osha)
Сюжет фильма:
К концу подходит время благоденствия, и лето, длившееся несколько десятилетий, угасает. Вокруг средоточия власти Семи королевств, Железного трона, зреет заговор, и в это непростое время король решает искать поддержки у друга юности Эддарда Старка. В мире, где все — от короля до наемника — рвутся к власти, плетут интриги и готовы вонзить нож в спину, есть место и благородству, состраданию и любви. Между тем, никто не замечает пробуждение тьмы из легенд далеко на Севере — и лишь Стена защищает живых к югу от нее.

Страна: США
Продолжительность: ~ 00:55:00
Перевод: Русский профессиональный многоголосый (AlexFilm.TV) + Оригинальная дорожка
Субтитры: Русские (полные (Opel & Westeros.ru и 7kingdoms.ru), форсированные), Английские. СПАСИБО Shevon и Mister Yarik
Информация о файле:
Качество: HDTVRip
Файл: AVI
Кодек: XviD, build 65 codec
Видео: 720 x 400, 16:9; 23.976 fps; ~ 1600 kbps; 0.232 bit/pixel
Аудио #1: 48 kHz, AC3 Dolby Digital, 3/2 (L,C,R,l,r) + LFE ch, ~384.00 kbps avg | MVO AlexFilm.TV
Аудио #2: 48 kHz, AC3 Dolby Digital, 3/2 (L,C,R,l,r) + LFE ch, ~384.00 kbps avg | Eng
Аудио #3: 48 kHz, AC3 Dolby Digital, 3/2 (L,C,R,l,r) + LFE ch, ~384.00 kbps avg | MVO LostFilm (Серии: 1, 2, 3, 4, 5, 6, 7, 8, 9, 10) | narod.ru
Аудио #4: 48 kHz, AC3 Dolby Digital, 3/2 (L,C,R,l,r) + LFE ch, ~384.00 kbps avg | Ukr MVO UATEAM (Серии: 1, 2, 3, 4, 5, 6, 7, 8, 9, 10) | narod.ru
Размер: ~ 898 Mb (одна серия)


1. Север помнит / The North Remembers
2. Ночные земли / The Night Lands
3. То, что мертво, умереть не может / What Is Dead May Never Die
4. Сад костей / Garden of Bones
5. Призрак Харренхола / The Ghost of Harrenhal
6. Боги старые и новые / The Old Gods and the New
7. Человек без чести / A Man Without Honor
8. Принц Винтерфелла / The Prince of Winterfell
9. Черноводная / Blackwater
10. Валар Моргулис / Valar Morghulis
General
Complete name : J:играIgra.Prestolov.2012.S02.E01.DUAL.HDTVRip.XviD.AC3.-HQ-ViDEO.avi
Format : AVI
Format/Info : Audio Video Interleave
File size : 899 MiB
Duration : 52mn 39s
Overall bit rate : 2 386 Kbps
Movie name : Игра престолов / Game of Thrones (Сезон 2 / Season 2) (2012)
Director : Shevon (HDTV 1080i)
Writing application : VirtualDubModRus 1.5.10.2 (build 2542/release)
Copyright : HQ-ViDEO
Comment : E01: Север помнит / The North Remembers
Video
ID : 0
Format : MPEG-4 Visual
Format profile : Advanced Simple@L5
Format settings, BVOP : 1
Format settings, QPel : No
Format settings, GMC : No warppoints
Format settings, Matrix : Custom
Codec ID : XVID
Codec ID/Hint : XviD
Duration : 52mn 39s
Bit rate : 1 604 Kbps
Width : 720 pixels
Height : 400 pixels
Display aspect ratio : 16:9
Frame rate : 23.976 fps
Color space : YUV
Chroma subsampling : 4:2:0
Bit depth : 8 bits
Scan type : Progressive
Compression mode : Lossy
Bits/(Pixel*Frame) : 0.232
Stream size : 604 MiB (67%)
Writing library : XviD 65
Audio #1
ID : 1
Format : AC-3
Format/Info : Audio Coding 3
Mode extension : CM (complete main)
Codec ID : 2000
Duration : 52mn 39s
Bit rate mode : Constant
Bit rate : 384 Kbps
Channel(s) : 6 channels
Channel positions : Front: L C R, Side: L R, LFE
Sampling rate : 48.0 KHz
Bit depth : 16 bits
Compression mode : Lossy
Stream size : 145 MiB (16%)
Alignment : Split accross interleaves
Interleave, duration : 42 ms (1.00 video frame)
Interleave, preload duration : 500 ms
Audio #2
ID : 2
Format : AC-3
Format/Info : Audio Coding 3
Mode extension : CM (complete main)
Codec ID : 2000
Duration : 52mn 39s
Bit rate mode : Constant
Bit rate : 384 Kbps
Channel(s) : 6 channels
Channel positions : Front: L C R, Side: L R, LFE
Sampling rate : 48.0 KHz
Bit depth : 16 bits
Compression mode : Lossy
Stream size : 145 MiB (16%)
Alignment : Split accross interleaves
Interleave, duration : 42 ms (1.00 video frame)
Interleave, preload duration : 500 ms

Релиз:
Автор рипа: Shevon
Источник: HDTV 1080i / Nez
ПРИЯТНОГО ПРОСМОТРА!



   Похожие торренты   Торрент   Размер 
В этой теме нет новых непрочитанных сообщений. Игра престолов / Game of Thrones [S01] (2011) HDTVRip от HQ-ViDEO

286 | 705

11.76 ГБ

В этой теме нет новых непрочитанных сообщений. Игра престолов / Game of Thrones [S02] (2012) BDRip от HQ-ViDEO

484 | 119

11.28 ГБ

В этой теме нет новых непрочитанных сообщений. Игра престолов / Game of Thrones [S02] (2012) HDTVRip | Sub

9 | 4

5.15 ГБ

В этой теме нет новых непрочитанных сообщений. Игра престолов / Game of Thrones [S02] (2012) HDTVRip | КПК

148 | 60

2.48 ГБ

В этой теме нет новых непрочитанных сообщений. Игра престолов / Game of Thrones [S02] (2012) HDTVRip | BaibaKо

93 | 17

7.51 ГБ

В этой теме нет новых непрочитанных сообщений. Игра престолов / Game of Thrones [S02] (2012) HDTVRip | P AlexFilm

100 | 14

5.82 ГБ

В этой теме нет новых непрочитанных сообщений. Игра престолов / Game of Thrones [S02] (2012) HDTVRip | P LostFilm

1997 | 317

5.63 ГБ




Вы не можете начинать темы
Вы не можете отвечать на сообщения
Вы не можете редактировать свои сообщения
Вы не можете удалять свои сообщения
Вы не можете добавлять вложения

Перейти:  
Для Мосгорсуда, Роскомнадзора и рекламодателей: mosgorsud-torrent[собачка]yandex.ru
 Вход
ppkBB3cker v.2 © 2008-2014 @ PPK
[ Time : 0.614s | 14 Queries | GZIP : On ]

Торрент трекер RUTOR.IN, Не можете зайти на rutor.org? Какой новый адрес рутор? Какое зеркало рутор? Не работает rutor.org и зеркала? Тогда наш торрент специально для вас. Rutor.in неофициальное зеркало rutor. В случае если у Вас заблокирован rutor или вдруг Вы не можете на него зайти, то Вы без труда сможете скачать бесплатно и без рекламы последние новинки кино, игр, сериалов и прочего у нас, на Rutor.in. Не нужно использовать прокси, чтобы зайти на рутор, достаточно воспользоваться нашим ресурсом. Все новые фильмы, игры, сериалы, книги и музыка за 2013 и 2014 годы через торрент бесплатно. Скачивайте фильмы в хорошем качестве, игры для пк, xbox, playstation без регистрации. У нас вы найдете новые Зарубежные сериалы и Русские сериалы 2013, 2014, 2015 годов. Оставайтесь с нами, качайте любимые фильмы, игры, сериалы, книги и музыку.