img image001 image001 image001 image001 image001 image001 image001 image001 image001 image001 image001 image001 image001 image001 image001

Planets Sun Sun Sun
Статистика раздачи
Автор: Снежана | Размер: 7.03 ГБ | Добавлен: 25 июл 2013
Раздают: 178    Качают: 57
Скачать торрент
Скачать торрент
Описание торрента

СообщениеДобавлено: 25 июл 2013 


Год выпуска: 2010
Производство: Россия, кинокомпания "НТВ-кино
Жанр: Остросюжетный, криминал
Продолжительность: ~ 00:47:30
Субтитры: Отсутствуют

Режиссёр: Алексей Мурадов
В ролях: Максим Матвеев, Алексей Комашко, Дмитрий Волкострелов, Алексей Гуськов, Юрий Ершов, Мария Звонарева, Александр Иванов (II), Виталий Коваленко, Андрей Пынзару, Андрей Смоляков, Сергей Юшкевич, Алексей Макрецкий, Нина Усатова, Хельга Филиппова

Описание:
По одноименному роману Андрея Константинова."Тульский – Токарев" - так звучит полное название пистолета ТТ. Две судьбы, Тульского и Токарева, сложит Васильевский остров в боевое оружие, – против того, кого они называют, Невидимкой, Фантомом, Шахматистом. Он тоже вырос на Васильевском острове - молодой человек "с неподвижными глазами и паутиной в душе". Он совершал убийства и считал, что вершит справедливость. Он мнил себя "чистильщиком острова"...


Качество: DVDRip - AVC (Исходник - 2 х DVD9)
Формат: MKV
Видео кодек: H.264
Аудио кодек: AC3
Видео: x264, 716 х 430**763 х 430 (16:9), 25,000 кадр/сек, ~ 1541 Кбит/сек, 0.20 bit/pixel
Аудио: 48 kHz, AC3 Dolby Digital, 3/2 (L,C,R,l,r) + LFE ch, 224.00 kbps avg

Релиз от:

General
Complete name : C:Тульский-Токарев_01 серия_2009_DVDRip-AVC_Metla111.mkv
Format : Matroska
File size : 600 MiB
Duration : 47mn 30s
Overall bit rate : 1 766 Kbps
Encoded date : UTC 2011-10-19 07:05:26
Writing application : mkvmerge v4.6.0 ('Still Crazy After All These Years') сборка от Apr 1 2011 21:01:49
Writing library : libebml v1.2.0 + libmatroska v1.1.0

Video
ID : 1
Format : AVC
Format/Info : Advanced Video Codec
Format profile : High@L3.1
Format settings, CABAC : Yes
Format settings, ReFrames : 8 frames
Codec ID : V_MPEG4/ISO/AVC
Duration : 47mn 30s
Bit rate : 1 541 Kbps
Width : 716 pixels
Height : 430 pixels
Display aspect ratio : 16:9
Original display aspect ratio : 16:9
Frame rate : 25.000 fps
Color space : YUV
Chroma subsampling : 4:2:0
Bit depth : 8 bits
Scan type : Progressive
Bits/(Pixel*Frame) : 0.200
Stream size : 512 MiB (85%)
Writing library : x264 core 115 r1937 aa21558
Encoding settings : cabac=1 / ref=8 / deblock=1:-1:-2 / analyse=0x3:0x133 / me=umh / subme=8 / psy=1 / psy_rd=1.00:0.10 / mixed_ref=1 / me_range=24 / chroma_me=1 / trellis=2 / 8x8dct=1 / cqm=0 / deadzone=21,11 / fast_pskip=1 / chroma_qp_offset=-3 / threads=6 / sliced_threads=0 / nr=0 / decimate=1 / interlaced=0 / bluray_compat=0 / constrained_intra=0 / bframes=6 / b_pyramid=2 / b_adapt=2 / b_bias=0 / direct=3 / weightb=1 / open_gop=0 / weightp=2 / keyint=250 / keyint_min=25 / scenecut=40 / intra_refresh=0 / rc=2pass / mbtree=0 / bitrate=1541 / ratetol=1.0 / qcomp=0.60 / qpmin=0 / qpmax=69 / qpstep=4 / cplxblur=20.0 / qblur=0.5 / ip_ratio=1.40 / pb_ratio=1.30 / aq=1:1.00
Color primaries : BT.709-5, BT.1361, IEC 61966-2-4, SMPTE RP177
Transfer characteristics : BT.709-5, BT.1361
Matrix coefficients : BT.709-5, BT.1361, IEC 61966-2-4 709, SMPTE RP177

Audio
ID : 2
Format : AC-3
Format/Info : Audio Coding 3
Mode extension : CM (complete main)
Codec ID : A_AC3
Duration : 47mn 30s
Bit rate mode : Constant
Bit rate : 224 Kbps
Channel(s) : 6 channels
Channel positions : Front: L C R, Side: L R, LFE
Sampling rate : 48.0 KHz
Bit depth : 16 bits
Compression mode : Lossy
Stream size : 76.1 MiB (13%)







   Похожие торренты   Торрент   Размер 
В этой теме нет новых непрочитанных сообщений. Тульский Токарев [01-12 из 12] (2010) DVDRip

61 | 7

8.21 ГБ

В этой теме нет новых непрочитанных сообщений. Тульский Токарев [01-12 из 12] (2010) DVDRip

231 | 19

8.64 ГБ

В этой теме нет новых непрочитанных сообщений. Тульский Токарев [01-12 из 12] (2010) 2хDVD9

1 | 3

14.47 ГБ

В этой теме нет новых непрочитанных сообщений. Тульский-Токарев [12 серий из 12] (2010) SATRip

89 | 16

5.21 ГБ

В этой теме нет новых непрочитанных сообщений. Токарев / Tokarev (2014) HDRip | P2

2401 | 206

2.05 ГБ

В этой теме нет новых непрочитанных сообщений. Токарев / Tokarev (2014) HDRip | P2

5274 | 329

1.46 ГБ

В этой теме нет новых непрочитанных сообщений. Вилли Токарев - Над Гудзоном (1983) MP3

88 | 8

77.2 МБ




Вы не можете начинать темы
Вы не можете отвечать на сообщения
Вы не можете редактировать свои сообщения
Вы не можете удалять свои сообщения
Вы не можете добавлять вложения

Перейти:  
Для Мосгорсуда, Роскомнадзора и рекламодателей: mosgorsud-torrent[собачка]yandex.ru
 Вход
ppkBB3cker v.2 © 2008-2014 @ PPK
[ Time : 0.063s | 14 Queries | GZIP : Off ]

Торрент трекер RUTOR.IN, Не можете зайти на rutor.org? Какой новый адрес рутор? Какое зеркало рутор? Не работает rutor.org и зеркала? Тогда наш торрент специально для вас. Rutor.in неофициальное зеркало rutor. В случае если у Вас заблокирован rutor или вдруг Вы не можете на него зайти, то Вы без труда сможете скачать бесплатно и без рекламы последние новинки кино, игр, сериалов и прочего у нас, на Rutor.in. Не нужно использовать прокси, чтобы зайти на рутор, достаточно воспользоваться нашим ресурсом. Все новые фильмы, игры, сериалы, книги и музыка за 2013 и 2014 годы через торрент бесплатно. Скачивайте фильмы в хорошем качестве, игры для пк, xbox, playstation без регистрации. У нас вы найдете новые Зарубежные сериалы и Русские сериалы 2013, 2014, 2015 годов. Оставайтесь с нами, качайте любимые фильмы, игры, сериалы, книги и музыку.