img image001 image001 image001 image001 image001 image001 image001 image001 image001 image001 image001 image001 image001 image001 image001

Planets Sun Sun Sun
Статистика раздачи
Автор: Снежана | Размер: 30.96 ГБ | Добавлен: 25 июл 2013
Раздают: 146    Качают: 5
Скачать торрент
Скачать торрент
Описание торрента

СообщениеДобавлено: 25 июл 2013 

#77

Информация о фильме
Название: Хорошая жена
Оригинальное название: The Good Wife
Год выхода: 2011-2012
Жанр: Драма, криминал, детектив
Режиссер: Мишель Кинг, Роберт Кинг
В ролях: Джулианна Маргулис, Крис Нот, Джош Чарльз, Кристин Барански, Мэтт Зукри, Арчи Панджаби, Макензи Вега

О фильме:
Благополучное существование Алисии Флоррик, счастливой жены и матери двух детей, было разрушено, когда её муж, чикагский прокурор Питер Флоррик, оказался в центре секс-скандала. Осуждённый за коррупцию Питер отправился в тюрьму, а на плечи Алисии легла забота о семье. Пришлось вспомнить свои навыки адвоката. Старый друг взял Алисию к себе в фирму - младшим сотрудником, наравне с свежими выпускниками юридического колледжа, и теперь Алисия должна построить свою карьеру практически с нуля, не переставая заботиться о семье и продолжая испытывать негативные последствия скандала вокруг мужа. В сериале смешаны семейная и юридическая драмы примерно в равных пропорциях. В каждой серии рассказывается история про дело, которое ведёт фирма "Стерн, Локхарт и Гарднер", куда Алисия устроилась на работу. И в каждой серии показывается жизнь её семьи, а заодно разворачивается сквозной детективный сюжет вокруг Питера - ведь его подставили под обвинение в коррупции не просто так. Вновь обретённая работа, любовь к детям, сложные отношения с мужем, взаимодействие с коллегами - вот из чего состоит жизнь этой женщины, на первый взгляд беззащитной и мягкой, но в реальности очень сильной и упорной.

Страна: США
Студия: Scott Free Productions, King Size Productions, Small Wishes
Продолжительность: 22 x ~ 00:43:30
Перевод: Профессиональный, многоголосый - Universal Russia (Diva)

Файл
Кодек: h.264
Качество: WEB-DL 720p
Видео: MPEG-4 AVC, ~ 3918 Кбит/с, 1280x720
Звук:
Русский (АС3, 2 ch, 192 Кбит/с)
Английский (АС3, 6 ch, 384 Кбит/с)

Семпл

Общее
Уникальный идентификатор : 233792708011574822536678994452455760569 (0xAFE2D6746AD59A3DA68B2F20AC3622B9)
Полное имя : C:The Good Wife 3 720pThe Good Wife s03e01.mkv
Формат : Matroska
Размер файла : 1,40 Гбайт
Продолжительность : 43 м.
Общий поток : 4585 Кбит/сек
Дата кодирования : UTC 2012-03-11 21:07:25
Программа кодирования : mkvmerge v5.2.1 ('A Far Off Place') built on Jan 2 2012 23:21:10
Библиотека кодирования : libebml v1.2.3 + libmatroska v1.3.0

Видео
Идентификатор : 1
Формат : AVC
Формат/Информация : Advanced Video Codec
Профиль формата : High@L3.1
Параметр CABAC формата : Нет
Параметр ReFrames формата : 2 кадра
Идентификатор кодека : V_MPEG4/ISO/AVC
Продолжительность : 43 м.
Битрейт : 3918 Кбит/сек
Ширина : 1280 пикс.
Высота : 720 пикс.
Соотношение сторон : 16:9
Частота кадров : 23,976 кадр/сек
Цветовое пространство : YUV
Подвыборка цветности : 4:2:0
Битовая глубина : 8 бит
Тип развёртки : Прогрессивная
Бит/(Пиксели*Кадры) : 0.177
Размер потока : 1,20 Гбайт (85%)
Основные цвета : BT.709-5, BT.1361, IEC 61966-2-4, SMPTE RP177
Характеристики трансфера : BT.709-5, BT.1361
Коэффициенты матрицы : BT.709-5, BT.1361, IEC 61966-2-4 709, SMPTE RP177

Аудио #1
Идентификатор : 2
Формат : AC-3
Формат/Информация : Audio Coding 3
Расширение режима : CM (complete main)
Идентификатор кодека : A_AC3
Продолжительность : 43 м.
Вид битрейта : Постоянный
Битрейт : 192 Кбит/сек
Каналы : 2 канала
Расположение каналов : Front: L R
Частота : 48,0 КГц
Битовая глубина : 16 бит
Размер потока : 60,2 Мбайт (4%)
Заголовок : RUS
Язык : Russian

Аудио #2
Идентификатор : 3
Формат : AC-3
Формат/Информация : Audio Coding 3
Расширение режима : CM (complete main)
Идентификатор кодека : A_AC3
Продолжительность : 43 м.
Вид битрейта : Постоянный
Битрейт : 384 Кбит/сек
Каналы : 6 каналов
Расположение каналов : Front: L C R, Side: L R, LFE
Частота : 48,0 КГц
Битовая глубина : 16 бит
Размер потока : 120 Мбайт (8%)
Заголовок : ENG
Язык : English



   Похожие торренты   Торрент   Размер 
В этой теме нет новых непрочитанных сообщений. Хорошая жена / The Good Wife [S02] (2010) WEB-DLRip | Universal Russia

162 | 20

9.01 ГБ

В этой теме нет новых непрочитанных сообщений. Хорошая жена / The Good Wife [S03] (2011) WEB-DLRip | P Universal

148 | 8

8.66 ГБ

В этой теме нет новых непрочитанных сообщений. Хорошая жена / The Good Wife [S04] (2012) WEB-DL 720p | NewStudio

5 | 13

31.63 ГБ

В этой теме нет новых непрочитанных сообщений. Хорошая жена / Правильная жена / The Good Wife [S05] (2013-2014) WEB-DL 720p | NewStudio

63 | 10

32.03 ГБ

В этой теме нет новых непрочитанных сообщений. Хорошая жена / Правильная жена / The Good Wife [05x01-12] (2013-2014) WEB-DL 720p | NewStudio

0 | 2

17.56 ГБ

В этой теме нет новых непрочитанных сообщений. Хорошая жена / The Good Wife [S04] (2012) WEB-DLRip | NewStudio

36 | 66

11.82 ГБ

В этой теме нет новых непрочитанных сообщений. Хорошая жена / The Good Wife [03x01-22 из 22] (2011) WEB-DLRip | NewStudio

4 | 2

11.82 ГБ




Вы не можете начинать темы
Вы не можете отвечать на сообщения
Вы не можете редактировать свои сообщения
Вы не можете удалять свои сообщения
Вы не можете добавлять вложения

Перейти:  
Для Мосгорсуда, Роскомнадзора и рекламодателей: mosgorsud-torrent[собачка]yandex.ru
 Вход
ppkBB3cker v.2 © 2008-2014 @ PPK
[ Time : 0.043s | 16 Queries | GZIP : Off ]

Торрент трекер RUTOR.IN, Не можете зайти на rutor.org? Какой новый адрес рутор? Какое зеркало рутор? Не работает rutor.org и зеркала? Тогда наш торрент специально для вас. Rutor.in неофициальное зеркало rutor. В случае если у Вас заблокирован rutor или вдруг Вы не можете на него зайти, то Вы без труда сможете скачать бесплатно и без рекламы последние новинки кино, игр, сериалов и прочего у нас, на Rutor.in. Не нужно использовать прокси, чтобы зайти на рутор, достаточно воспользоваться нашим ресурсом. Все новые фильмы, игры, сериалы, книги и музыка за 2013 и 2014 годы через торрент бесплатно. Скачивайте фильмы в хорошем качестве, игры для пк, xbox, playstation без регистрации. У нас вы найдете новые Зарубежные сериалы и Русские сериалы 2013, 2014, 2015 годов. Оставайтесь с нами, качайте любимые фильмы, игры, сериалы, книги и музыку.
cron