img image001 image001 image001 image001 image001 image001 image001 image001 image001 image001 image001 image001 image001 image001 image001

Planets Sun Sun Sun
Статистика раздачи
Автор: Снежана | Размер: 4.26 ГБ | Добавлен: 25 июл 2013
Раздают: 7    Качают: 18
Скачать торрент
Скачать торрент
Описание торрента

СообщениеДобавлено: 25 июл 2013 

#77

Информация о фильме
Название: Парижане
Год выхода: 2006
Жанр: мелодрама, комедия
Режиссер: Стас Егерев, Сергей Полянский
В ролях: Пьер Ришар /Pierre Richard/, Амалия Мордвинова, Елена Захарова, Антон Макарский, Татьяна Орлова, Виталий Альшанский, Юрий Шерстнев, Юрий Цурило, Сергей Астахов, Вадим Андреев

О фильме:
Действие фильма происходит в одной из российских деревень с романтичным названием Париж. Именно сюда, после неудачных попыток покорить столицу, в одно и то же время съезжаются разочаровавшиеся в мегаполисе парижане — депутат Госдумы, крупный чиновник, популярный некогда эстрадный певец, бизнесмен с криминальным прошлым, разочаровавшийся в себе ученый, брошенная любовником тренер по фитнесу…

Каждый из них, вернувшись на свою малую родину, находит решение своих проблем и осуществляет свою заветную мечту. Беременная Александра находит свою любовь, мастер-кустарь Кувалдин строит в родном Париже свою «Эйфелеву башню», а футбольной команде парижан удается сыграть матч с легендарным московским «Спартаком».

Страна: Россия
Продолжительность: 8 x ~ 00:45:00
Перевод: Не требуется

Файл
Кодек: DivX / AC3
Качество: DVDRip
Видео: DivX, 704x400 (1.76:1), 25 fps, ~1500 kbps, 0.21 bit/pixel
Звук: AC3, 48 kHz, 2 ch, ~192 kbps

Формат : AVI
Формат/Информация : Audio Video Interleave
Размер файла : 545 Мбайт
Продолжительность : 44 м.
Общий поток : 1703 Кбит/сек
Программа кодирования : VirtualDubMod 1.5.10.2 (build 2540/release)
Библиотека кодирования : VirtualDubMod build 2540/release

Видео
Идентификатор : 0
Формат : MPEG-4 Visual
Параметр BVOP формата : 1
Параметр QPel формата : Нет
Параметр GMC формата : Без точки перехода
Параметр матрицы формата : Default (H.263)
Режим смешивания : Сжатый битовый поток
Идентификатор кодека : DX50
Идентификатор кодека/Подсказка : DivX 5
Продолжительность : 44 м.
Битрейт : 1501 Кбит/сек
Ширина : 704 пикс.
Высота : 400 пикс.
Соотношение сторон : 16:9
Частота кадров : 25,000 кадр/сек
Цветовое пространство : YUV
Подвыборка цветности : 4:2:0
Битовая глубина : 8 бит
Тип развёртки : Прогрессивная
Метод сжатия : С потерями
Бит/(Пиксели*Кадры) : 0.213
Размер потока : 481 Мбайт (88%)
Библиотека кодирования : DivX 5.2.1 (WaffleDay) (UTC 2004-09-08)

Аудио
Идентификатор : 1
Формат : AC-3
Формат/Информация : Audio Coding 3
Расширение режима : CM (complete main)
Идентификатор кодека : 2000
Продолжительность : 44 м.
Вид битрейта : Постоянный
Битрейт : 192 Кбит/сек
Канал(ы) : 2 канала(ов)
Расположение каналов : Front: L R
Частота : 48,0 КГц
Битовая глубина : 16 бит
Метод сжатия : С потерями
Размер потока : 61,5 Мбайт (11%)
Выравнивание : Разделение по промежуткам
Продолжительность промежутка : 40 мс. (1,00 видеокадр)
Время предзагрузки промежутка : 500 ms




   Похожие торренты   Торрент   Размер 
В этой теме нет новых непрочитанных сообщений. Крылья России. Звезды Гидроавиасалона 1996-2006 (2006) DVDRip-AVC от Тorrent-Хzona

1 | 4

743.37 МБ

В этой теме нет новых непрочитанных сообщений. Чемпионаты мира по футболу 1930-2006 / FIFA WORLD CUP 1930 - 2006 [5х15] (2010) DVDRip от KinoZalSat

4 | 4

1.37 ГБ

В этой теме нет новых непрочитанных сообщений. Чемпионаты мира по футболу 1930-2006 / FIFA WORLD CUP 1930 - 2006 [11х15] (2010) DVDRip от KinoZalSat

3 | 5

1.37 ГБ

В этой теме нет новых непрочитанных сообщений. Чемпионаты мира по футболу 1930-2006 / FIFA WORLD CUP 1930-2006 [9х15] (2010) DVDRip от KinoZalSat

2 | 6

1.37 ГБ

В этой теме нет новых непрочитанных сообщений. Чемпионаты мира по футболу 1930-2006 / FIFA WORLD CUP 1930 - 2006 [8х15] (2010) DVDRip от KinoZalSat

20 | 7

1.37 ГБ

В этой теме нет новых непрочитанных сообщений. Чемпионаты мира по футболу 1930-2006 / FIFA WORLD CUP 1930 - 2006 [7х15] (2010) DVDRip от KinoZalSat

1 | 4

1.37 ГБ

В этой теме нет новых непрочитанных сообщений. Чемпионаты мира по футболу 1930-2006 / FIFA WORLD CUP 1930 - 2006 [6х15] (2010) DVDRip от KinoZalSat

3 | 7

1.37 ГБ




Вы не можете начинать темы
Вы не можете отвечать на сообщения
Вы не можете редактировать свои сообщения
Вы не можете удалять свои сообщения
Вы не можете добавлять вложения

Перейти:  
Для Мосгорсуда, Роскомнадзора и рекламодателей: mosgorsud-torrent[собачка]yandex.ru
 Вход
ppkBB3cker v.2 © 2008-2014 @ PPK
[ Time : 0.041s | 15 Queries | GZIP : Off ]

Торрент трекер RUTOR.IN, Не можете зайти на rutor.org? Какой новый адрес рутор? Какое зеркало рутор? Не работает rutor.org и зеркала? Тогда наш торрент специально для вас. Rutor.in неофициальное зеркало rutor. В случае если у Вас заблокирован rutor или вдруг Вы не можете на него зайти, то Вы без труда сможете скачать бесплатно и без рекламы последние новинки кино, игр, сериалов и прочего у нас, на Rutor.in. Не нужно использовать прокси, чтобы зайти на рутор, достаточно воспользоваться нашим ресурсом. Все новые фильмы, игры, сериалы, книги и музыка за 2013 и 2014 годы через торрент бесплатно. Скачивайте фильмы в хорошем качестве, игры для пк, xbox, playstation без регистрации. У нас вы найдете новые Зарубежные сериалы и Русские сериалы 2013, 2014, 2015 годов. Оставайтесь с нами, качайте любимые фильмы, игры, сериалы, книги и музыку.
cron