img image001 image001 image001 image001 image001 image001 image001 image001 image001 image001 image001 image001 image001 image001 image001

Planets Sun Sun Sun
Статистика раздачи
Автор: Снежана | Размер: 7.35 ГБ | Добавлен: 25 июл 2013
Раздают: 0    Качают: 1
Скачать торрент
Скачать торрент
Описание торрента

СообщениеДобавлено: 25 июл 2013 

#77

Информация о фильме
Название: Большая Ж
Оригинальное название: The Big C
Год выхода: 2012
Жанр: драма, комедия
Режиссер: Дарлин Хант, Билл Кондон
В ролях: Надя Дажани, Уильям Даффи, Pedro Hossi, Оливер Плэтт, Гэбриел Бассо, Fatimah Hassan, Джон Бенжамин Хикки, Саймон Кассианидес, Лора Линни, Джеймс Шрэм и др.



О фильме:
Женщине из пригорода, жене и матери ставят страшный диагноз — рак. Она вынуждена находить светлые стороны в своей ситуации. Этот сериал — метафора о том, как должны жить все мы, но никогда не живем. О том, что надо наслаждаться моментом.

Страна: США
Продолжительность: ~30 мин
Перевод: Отсутствует
Русские субтитры: есть
Автор перевода: Notabenoid

Файл
Качество: HDTVRip 720p
Формат: MKV
Видео кодек: MPEG2
Аудио кодек: AC3
Видео: 1280 x 720, 23.976 fps, 2588 kbps, 0.117 bit/pixel
Аудио: AC3, 48000Hz, 6 channels, 384 kb/s

Семпл


Видео
Идентификатор : 1
Формат : AVC
Формат/Информация : Advanced Video Codec
Профиль формата : High@L4.1
Параметр CABAC формата : Да
Параметр ReFrames формата : 5 кадров
Идентификатор кодека : V_MPEG4/ISO/AVC
Продолжительность : 28 м.
Битрейт : 2588 Кбит/сек
Ширина : 1280 пикселей
Высота : 720 пикселей
Соотношение сторон : 16:9
Частота кадров : 23,976 кадра/сек
Цветовое пространство : YUV
Субдискретизация насыщенности : 4:2:0
Битовая глубина : 8 бит
Тип развёртки : Прогрессивная
Бит/(Пиксели*Кадры) : 0.117
Размер потока : 532 Мбайт (85%)
Библиотека кодирования : x264 core 124 r2197 69a0443
Настройки программы : cabac=1 / ref=5 / deblock=1:0:0 / analyse=0x3:0x113 / me=umh / subme=8 / psy=1 / psy_rd=1.00:0.00 / mixed_ref=1 / me_range=16 / chroma_me=1 / trellis=1 / 8x8dct=1 / cqm=0 / deadzone=21,11 / fast_pskip=1 / chroma_qp_offset=-2 / threads=18 / sliced_threads=0 / nr=0 / decimate=1 / interlaced=0 / bluray_compat=0 / constrained_intra=0 / bframes=3 / b_pyramid=2 / b_adapt=2 / b_bias=0 / direct=3 / weightb=1 / open_gop=0 / weightp=2 / keyint=250 / keyint_min=23 / scenecut=40 / intra_refresh=0 / rc_lookahead=50 / rc=crf / mbtree=1 / crf=18.0 / qcomp=0.60 / qpmin=0 / qpmax=69 / qpstep=4 / ip_ratio=1.40 / aq=1:1.00
Язык : English
Default : Да
Forced : Нет
Аудио
Идентификатор : 2
Формат : AC-3
Формат/Информация : Audio Coding 3
Расширение режима : CM (complete main)
Параметр Endianness формата : Big
Идентификатор кодека : A_AC3
Продолжительность : 28 м.
Вид битрейта : Постоянный
Битрейт : 384 Кбит/сек
Каналы : 6 каналов
Расположение каналов : Front: L C R, Side: L R, LFE
Частота : 48,0 КГц
Битовая глубина : 16 бит
Метод сжатия : С потерями
Размер потока : 78,9 Мбайт (13%)
Язык : English
Default : Да
Forced : Нет




   Похожие торренты   Торрент   Размер 
В этой теме нет новых непрочитанных сообщений. Большая буква «Р» / Большая Ж / The Big C [S03] (2012) HDTVRip 720р | Ozz

1 | 1

9.82 ГБ

В этой теме нет новых непрочитанных сообщений. Большая буква «Р» / Большая Ж / The Big C [S03] (2012) HDTVRip от Ozz

7 | 1

2.52 ГБ

В этой теме нет новых непрочитанных сообщений. Большая буква «Р» / Большая Ж / The Big C [S03] (2012) HDTVRip | Sub

5 | 1

2.23 ГБ

В этой теме нет новых непрочитанных сообщений. Алая буква / The Scarlet Letter (1994) HDTVRip 720p | P

42 | 10

4.89 ГБ

В этой теме нет новых непрочитанных сообщений. Алая буква / The Scarlet Letter (1995) HDTVRip от NovaLan

30 | 10

2.54 ГБ

В этой теме нет новых непрочитанных сообщений. Большая буква «Р» / Большая Ж / The Big C [S01] (2010) HDTVRip от NewStudio

28 | 4

3.81 ГБ

В этой теме нет новых непрочитанных сообщений. Большая буква «Р» / Большая Ж / The Big C [S02] (2011) HDTVRip от NewStudio

0 | 4

900.09 МБ




Вы не можете начинать темы
Вы не можете отвечать на сообщения
Вы не можете редактировать свои сообщения
Вы не можете удалять свои сообщения
Вы не можете добавлять вложения

Перейти:  
Для Мосгорсуда, Роскомнадзора и рекламодателей: mosgorsud-torrent[собачка]yandex.ru
 Вход
ppkBB3cker v.2 © 2008-2014 @ PPK
[ Time : 0.967s | 14 Queries | GZIP : Off ]

Торрент трекер RUTOR.IN, Не можете зайти на rutor.org? Какой новый адрес рутор? Какое зеркало рутор? Не работает rutor.org и зеркала? Тогда наш торрент специально для вас. Rutor.in неофициальное зеркало rutor. В случае если у Вас заблокирован rutor или вдруг Вы не можете на него зайти, то Вы без труда сможете скачать бесплатно и без рекламы последние новинки кино, игр, сериалов и прочего у нас, на Rutor.in. Не нужно использовать прокси, чтобы зайти на рутор, достаточно воспользоваться нашим ресурсом. Все новые фильмы, игры, сериалы, книги и музыка за 2013 и 2014 годы через торрент бесплатно. Скачивайте фильмы в хорошем качестве, игры для пк, xbox, playstation без регистрации. У нас вы найдете новые Зарубежные сериалы и Русские сериалы 2013, 2014, 2015 годов. Оставайтесь с нами, качайте любимые фильмы, игры, сериалы, книги и музыку.