img image001 image001 image001 image001 image001 image001 image001 image001 image001 image001 image001 image001 image001 image001 image001

Planets Sun Sun Sun
Статистика раздачи
Автор: Снежана | Размер: 2.23 ГБ | Добавлен: 25 июл 2013
Раздают: 5    Качают: 1
Скачать торрент
Скачать торрент
Описание торрента

СообщениеДобавлено: 25 июл 2013 

#77

Информация о фильме
Название: Большая Ж
Оригинальное название: The Big C
Год выхода: 2012
Жанр: драма, комедия
Режиссер: Дарлин Хант, Билл Кондон
В ролях: Надя Дажани, Уильям Даффи, Pedro Hossi, Оливер Плэтт, Гэбриел Бассо, Fatimah Hassan, Джон Бенжамин Хикки, Саймон Кассианидес, Лора Линни, Джеймс Шрэм и др.



О фильме:
Женщине из пригорода, жене и матери ставят страшный диагноз — рак. Она вынуждена находить светлые стороны в своей ситуации. Этот сериал — метафора о том, как должны жить все мы, но никогда не живем. О том, что надо наслаждаться моментом.

Страна: США
Продолжительность: ~30 мин
Перевод: Отсутствует
Русские субтитры: есть
Автор перевода: JuliaS

Файл
Качество: HDTVRip
Формат: AVI
Видео кодек: XviD
Аудио кодек: MP3
Видео: 640*360 (1.77), 23.976 fps, XviD MPEG-4, ~1004 kbps, 0.182 bit/pixel
Аудио: 48 kHz, MPEG Layer 3, 2 ch, ~128.00 kbps avg

Семпл


Видео
Идентификатор : 0
Формат : MPEG-4 Visual
Профиль формата : Advanced Simple@L5
Параметр BVOP формата : 2
Параметр QPel формата : Нет
Параметр GMC формата : Без точки перехода
Параметр матрицы формата : Default (H.263)
Идентификатор кодека : XVID
Идентификатор кодека/Подсказка : XviD
Продолжительность : 28 м.
Битрейт : 1004 Кбит/сек
Ширина : 640 пикселей
Высота : 360 пикселей
Соотношение сторон : 16:9
Частота кадров : 23,976 кадра/сек
Цветовое пространство : YUV
Субдискретизация насыщенности : 4:2:0
Битовая глубина : 8 бит
Тип развёртки : Прогрессивная
Метод сжатия : С потерями
Бит/(Пиксели*Кадры) : 0.182
Размер потока : 206 Мбайт (88%)
Библиотека кодирования : XviD 64
Аудио
Идентификатор : 1
Формат : MPEG Audio
Версия формата : Version 1
Профиль формата : Layer 3
Режим : Joint stereo
Расширение режима : MS Stereo
Идентификатор кодека : 55
Идентификатор кодека/Подсказка : MP3
Продолжительность : 28 м.
Вид битрейта : Переменный
Битрейт : 128 Кбит/сек
Каналы : 2 канала
Частота : 48,0 КГц
Метод сжатия : С потерями
Размер потока : 26,2 Мбайт (11%)
Выравнивание : Соединение по промежуткам
Продолжительность промежутка : 24 мс. (0,58 видеокадр)
Время предзагрузки промежутка : 178 мс.
Заголовок : The.Big.C.S03E05.HDTV.XviD-AFG_360p.audio




   Похожие торренты   Торрент   Размер 
В этой теме нет новых непрочитанных сообщений. Большая буква «Р» / Большая Ж / The Big C [S03] (2012) HDTVRip 720р | Ozz

1 | 1

9.82 ГБ

В этой теме нет новых непрочитанных сообщений. Большая буква «Р» / Большая Ж / The Big C [S03] (2012) HDTVRip 720р | Sub

0 | 1

7.35 ГБ

В этой теме нет новых непрочитанных сообщений. Большая буква «Р» / Большая Ж / The Big C [S03] (2012) HDTVRip от Ozz

7 | 1

2.52 ГБ

В этой теме нет новых непрочитанных сообщений. Алая буква / The Scarlet Letter (1994) HDTVRip 720p | P

42 | 10

4.89 ГБ

В этой теме нет новых непрочитанных сообщений. Алая буква / The Scarlet Letter (1995) HDTVRip от NovaLan

30 | 10

2.54 ГБ

В этой теме нет новых непрочитанных сообщений. Большая буква «Р» / Большая Ж / The Big C [S02] (2011) HDTVRip от NewStudio

0 | 4

900.09 МБ

В этой теме нет новых непрочитанных сообщений. Большая буква «Р» / Большая Ж / The Big C [S01] (2010) HDTVRip от NewStudio

28 | 4

3.81 ГБ




Вы не можете начинать темы
Вы не можете отвечать на сообщения
Вы не можете редактировать свои сообщения
Вы не можете удалять свои сообщения
Вы не можете добавлять вложения

Перейти:  
Для Мосгорсуда, Роскомнадзора и рекламодателей: mosgorsud-torrent[собачка]yandex.ru
 Вход
ppkBB3cker v.2 © 2008-2014 @ PPK
[ Time : 0.045s | 15 Queries | GZIP : Off ]

cron