img image001 image001 image001 image001 image001 image001 image001 image001 image001 image001 image001 image001 image001 image001 image001

Planets Sun Sun Sun
Статистика раздачи
Автор: Снежана | Размер: 47.41 ГБ | Добавлен: 25 июл 2013
Раздают: 1    Качают: 2
Скачать торрент
Скачать торрент
Описание торрента

СообщениеДобавлено: 25 июл 2013 

#77
Название: Братья по оружию
Оригинальное название: Band of Brothers
Слоган: «Простые люди. Непростое время.»
Год выпуска: 2001
Страна: США, Великобритания
Жанр: драма, военный, история
Продолжительность: 10:25:23
Перевод: Профессиональный (двухголосый, П. Гланц & И. Королёва), Авторский (Живов Юрий), Профессиональный (двухголосый, Кубик в Кубе)
Cубтитры: русские, английские
Навигация по главам: есть
Режиссер: Дэвид Франкель / David Frankel, Микаэл Саломон / Mikael Salomon, Том Хэнкс / Tom Hanks
Сценарий: Erik Jendresen, Брюс С. МакКенна / Bruce C. McKenna, Джон Орлофф / John Orloff, Грэхэм Йост / Graham Yost, Стивен Амброуз / Stephen Ambrose
Продюсер: Стивен Амброуз / Stephen Ambrose, Erik Bork, Terri Depaolo, Билли Фокс / Billy Fox, Гари Гоэцман / Gary Goetzman
Оператор: Реми Адефаразин / Remi Adefarasin, Джоэль Рэнсом / Joel Ransom
Композитор: Майкл Кэмен / Michael Kamen
В ролях: Дамиан Льюис (Maj. Richard D. Winters), Донни Уолберг (2nd Lt. C. Carwood Lipton), Рон Ливингстон (Capt. Lewis Nixon), Скотт Граймз (TSgt. Donald Malarkey), Питер Янгблад Хиллз (SSgt. Darrel 'Shifty' Powers), Рик Гомез (Sgt. George Luz), Майкл Кудиц (Sgt. Denver 'Bull' Randleman), Робин Лэйн (Pvt. Edward 'Babe' Heffron), Николас Аарон (Pvt. Robert 'Popeye' Wynn), Джеймс Мадио (Sgt. Frank Perconte), Шэйн Тейлор (Cpl. Eugene Roe), Декстер Флетчер (SSgt. John Martin)
Бюджет: $125 000 000
Мировая премьера: 9 сентября 2001
Описание: В сериале рассказывается о боевом пути роты E («Easy») 2-го батальона 506-го парашютно-десантного полка 101-й воздушно-десантной дивизии США от тренировочного лагеря в Таккоа, штат Джорджия, через высадку в Нормандии, операцию «Маркет Гарден» и Бастонское сражение до конца войны.



Продолжительность: 01:13:13
Описание: В 1942 году в Таккоа отборная группа молодых добровольцев начинает военную подготовку. Ребята станут солдатами новейших на тот момент парашютно-десантных подразделений американской армии. Под суровым командованием лейтенанта Собела члены новоиспечённой роты «Изи» проходят путь от «зелёных салаг» до представителей военной элиты. В процессе обучения между Собелем, которого солдаты сразу невзлюбили, и лейтенантом Уинтерсом, уважаемым бойцами, разгорается взаимное соперничество…
Видео: 1280x720 (16:9); 5511 Kbps; 23,976 fps; 0,255 bpp
Аудио №1: Russian; DTS; 1510 Kbps; CBR; 6 ch; Гланц
Аудио №2: English; DTS; 1510 Kbps; CBR; 6 ch; Original
Аудио №3: Russian; AC3; 384 Kbps; CBR; 6 ch; Живов /отдельно/
Аудио №4: Russian; AC3; 448 Kbps; CBR; 6 ch; Кубик в Кубе /отдельно/
Субтитры №1: Russian
Субтитры №2: English




Продолжительность: 00:52:01
Описание: 6 июня 1944 года наступает великий день «Д»: союзные войска высаживаются в Нормандии. Накануне вторжения, с самолётов в тыл противника сбрасывают десантников, которые под покровом ночи должны были начать боевые действия и помочь высадке с моря. Парашютисты попадают под ужасный обстрел, из-за которого никто не приземлился в точке сбора, а многие остались без оружия и боеприпасов. Уинтерс объединяет потерявшихся солдат в сводный отряд, пытаясь помочь бойцам найти свои подразделения. Позднее лейтенант командует атакой на укреплённые позиции немецкой артиллерии, и успешно справляется с задачей, но его отряд несёт первые потери…
Видео: 1280x720 (16:9); 8574 Kbps; 23,976 fps; 0,397 bpp
Аудио №1: Russian; DTS; 1510 Kbps; CBR; 6 ch; Гланц
Аудио №2: English; DTS; 1510 Kbps; CBR; 6 ch; Original
Аудио №3: Russian; AC3; 384 Kbps; CBR; 6 ch; Живов /отдельно/
Аудио №4: Russian; AC3; 448 Kbps; CBR; 6 ch; Кубик в Кубе /отдельно/
Субтитры №1: Russian
Субтитры №2: English




Продолжительность: 01:05:20
Описание: Спустя два дня после высадки союзных войск рота «Изи» участвует в боях за взятие Карантана и несёт потери. Многим солдатам, включая рядового Блайта (Марк Уоррен), на войне приходится очень тяжело… После 36 дней боёв в Нормандии рота возвращается в Англию, но радость бойцов скоротечна, ибо их уже ждёт новое задание…
Видео: 1280x720 (16:9); 6548 Kbps; 23,976 fps; 0,303 bpp
Аудио №1: Russian; DTS; 1510 Kbps; CBR; 6 ch; Гланц
Аудио №2: English; DTS; 1510 Kbps; CBR; 6 ch; Original
Аудио №3: Russian; AC3; 384 Kbps; CBR; 6 ch; Живов /отдельно/
Аудио №4: Russian; AC3; 448 Kbps; CBR; 6 ch; Кубик в Кубе /отдельно/
Субтитры №1: Russian
Субтитры №2: English




Продолжительность: 00:59:42
Описание: Из-за значительных потерь в отряд переводят группу новичков-парашютистов. Рота «Изи» участвует в операции «Огород» — высадке десанта на территорию оккупированной немцами Голландии. Не встретив сопротивления в Эндховене, рота «Изи» и команда британских танков, столкнулись с упорным немецким сопротивлением в пригороде и вынуждены были отступить, потеряв немало людей. План союзников войти в Германию через Голландию и закончить войну до Рождества — закончился неудачей…
Видео: 1280x720 (16:9); 7072 Kbps; 23,976 fps; 0,327 bpp
Аудио №1: Russian; DTS; 1510 Kbps; CBR; 6 ch; Гланц
Аудио №2: English; DTS; 1510 Kbps; CBR; 6 ch; Original
Аудио №3: Russian; AC3; 384 Kbps; CBR; 6 ch; Живов /отдельно/
Аудио №4: Russian; AC3; 448 Kbps; CBR; 6 ch; Кубик в Кубе /отдельно/
Субтитры №1: Russian
Субтитры №2: English




Продолжительность: 00:55:41
Описание: Уинтерс возглавлял рискованную операцию на голландской плотине, завершившуюся победой. За успешное выполнение боевой задачи его назначают командиром батальона. Однако Уинтерс недоволен своей новой «административной» должностью. В освобождённый Париж приходят новости о мощном натиске вермахта в лесах Арденн, угрожающем прорвать фронт. Неэкипированная соответствующим образом, рота «Изи» в лютый мороз отправляется на передовую…
Видео: 1280x720 (16:9); 7785 Kbps; 23,976 fps; 0,360 bpp
Аудио №1: Russian; DTS; 1510 Kbps; CBR; 6 ch; Гланц
Аудио №2: English; DTS; 1510 Kbps; CBR; 6 ch; Original
Аудио №3: Russian; AC3; 384 Kbps; CBR; 6 ch; Живов /отдельно/
Аудио №4: Russian; AC3; 448 Kbps; CBR; 6 ch; Кубик в Кубе /отдельно/
Субтитры №1: Russian
Субтитры №2: English




Продолжительность: 01:07:12
Описание: Зимой в бельгийских лесах, неподалёку от Бастони, бойцы роты «Изи» сражаются сразу с несколькими противниками: немцами, голодом и жесточайшим морозом. Измученный санитар Юджин Роу (Шэйн Тэйлор) находится на грани срыва, когда вдруг неожиданно находит себе нового друга — бельгийскую медсестру. Рота «Изи» встречает невесёлое рождество в траншеях, где становится известно, что их командующий, генерал МакОлифф, ответил отказом на немецкий ультиматум о капитуляции фразой: «Чёрта с два!».
Видео: 1280x720 (16:9); 6260 Kbps; 23,976 fps; 0,290 bpp
Аудио №1: Russian; DTS; 1510 Kbps; CBR; 6 ch; Гланц
Аудио №2: English; DTS; 1510 Kbps; CBR; 6 ch; Original
Аудио №3: Russian; AC3; 384 Kbps; CBR; 6 ch; Живов /отдельно/
Аудио №4: Russian; AC3; 448 Kbps; CBR; 6 ch; Кубик в Кубе /отдельно/
Субтитры №1: Russian
Субтитры №2: English



Продолжительность: 01:12:50
Описание: Дав отпор немцам в Бастони, измученная рота «Изи» получает приказ отвоевать у врага близлежащий город Фой. Из-за неопытности нового командира, лейтенанта Дайка, потери личного состава в жестоком бою увеличились. Город взят, но слишком высокой ценой…
Видео: 1280x720 (16:9); 7069.55 Kbps; 23,976 fps; 0,327 bpp
Аудио №1: Russian; DTS; 1510 Kbps; CBR; 6 ch; Гланц
Аудио №2: English; DTS; 1510 Kbps; CBR; 6 ch; Original
Аудио №3: Russian; AC3; 384 Kbps; CBR; 6 ch; Живов /отдельно/
Аудио №4: Russian; AC3; 448 Kbps; CBR; 6 ch; Кубик в Кубе /отдельно/
Субтитры №1: Russian
Субтитры №2: English




Продолжительность: 00:58:59
Описание: Рота «Изи» прибывает в эльзасский городок Хагенау, который находится вблизи с германской границей, и получает приказ послать разведчиков, чтобы добыть вражеского «языка». Вновь прибывший выпускник «Вест-Пойнта», лейтенант Джонс, вызывается добровольцем на задание. Несмотря на то, что операция прошла успешно, один из десантников погиб. Это событие вынудило Уинтерса не посылать вторую группу разведчиков следующей ночью…
Видео: 1280x720 (16:9); 7586 Kbps; 23,976 fps; 0,351 bpp
Аудио №1: Russian; DTS; 1510 Kbps; CBR; 6 ch; Гланц
Аудио №2: English; DTS; 1510 Kbps; CBR; 6 ch; Original
Аудио №3: Russian; AC3; 384 Kbps; CBR; 6 ch; Живов /отдельно/
Аудио №4: Russian; AC3; 448 Kbps; CBR; 6 ch; Кубик в Кубе /отдельно/
Субтитры №1: Russian
Субтитры №2: English




Продолжительность: 00:58:11
Описание: Рота «Изи» входит на территорию Германии, встречает на удивление слабое сопротивление и получает возможность отдохнуть. Разведка обнаруживает в близлежащем лесу брошенный нацистский концлагерь с военнопленными. Местные жители, однако, отрицают, что им известно о существовании лагеря. Вскоре приходит известие о том, что Гитлер — мёртв…
Видео: 1280x720 (16:9); 7332 Kbps; 23,976 fps; 0,339 bpp
Аудио №1: Russian; DTS; 1510 Kbps; CBR; 6 ch; Гланц
Аудио №2: English; DTS; 1510 Kbps; CBR; 6 ch; Original
Аудио №3: Russian; AC3; 384 Kbps; CBR; 6 ch; Живов /отдельно/
Аудио №4: Russian; AC3; 448 Kbps; CBR; 6 ch; Кубик в Кубе /отдельно/
Субтитры №1: Russian
Субтитры №2: English




Продолжительность: 01:02:14
Описание: Рота «Изи» входит в Баварский городок Берхтесгаден, где некогда отдыхала офицерская элита вермахта, и захватывает неприступную горную крепость Гитлера «Орлиное гнездо». Капитуляция Японии ознаменовывает окончание войны. Теперь предстоит узнать, что стало с нашими героями после возвращения домой…
Видео: 1280x720 (16:9); 7004 Kbps; 23,976 fps; 0,324 bpp
Аудио №1: Russian; DTS; 1510 Kbps; CBR; 6 ch; Гланц
Аудио №2: English; DTS; 1510 Kbps; CBR; 6 ch; Original
Аудио №3: Russian; AC3; 384 Kbps; CBR; 6 ch; Живов /отдельно/
Аудио №4: Russian; AC3; 448 Kbps; CBR; 6 ch; Кубик в Кубе /отдельно/
Субтитры №1: Russian
Субтитры №2: English





Рейтинг



Формат: Matroska
Видеокодек: AVC
Аудиокодек: DTS, AC3
Видео: 1280x720 (16:9); ~7074 Kbps; 23.976 fps; 0,327 bpp
Аудио №1: Russian; DTS; 1510 Kbps; CBR; 6 ch; Гланц
Аудио №2: English; DTS; 1510 Kbps; CBR; 6 ch; Original
Аудио №3: Russian; AC3; 384 Kbps; CBR; 6 ch; Живов /отдельно/
Аудио №4: Russian; AC3; 448 Kbps; CBR; 6 ch; Кубик в Кубе /отдельно/
Субтитры №1: Russian
Субтитры №2: English



Практически все главные актеры были взяты на роли из-за внешнего сходства с настоящими солдатами, которых они играли.
Массовка насчитывала около 2,000 человек.
Во время съёмок было использовано около 700 штук огнестрельного оружия и почти 400 штук резиновых копий огнестрельного оружия.
При съёмках наиболее ожесточенных боев требовалось около 14,000 патронов.
Тони Блэр лично встретился со Стивеном Спилбергом, попросив, чтобы съёмки сериала проходили в Великобритании.
Хэтфилдский аэродром в Хартфордшире, где также проходили съёмки «Спасти рядового Райана» (1998), стал основным местом съёмок сериала. Также съёмки велись в различных уголках Англии, Нидерландов и Франции. Хэтфилдский аэродром мог предложить создателям 405 гектаров открытого пространства, а также множество пустых ангаров, что делало его идеальным местом для строительства декораций.
Перед началом съёмок актеры прошли десятидневный курс боевой подготовки. Причем актерам необходимо было постоянно оставаться в образе.
Площадь деревни (Карентан), использовавшейся для съёмок 11 различных европейских городов и деревень, составляла 4,86 гектаров.
Уже к третьей серии было использовано больше пиротехники и патронов, чем за всё время съёмок «Спасти рядового Райана» (1998).
Создатели заключили контракт с компанией «Corcoran Boot Co» на производство 500 пар ботинок парашютистов согласно оригинальным армейским спецификациям.
Для съёмок было закуплено или произведено около 2,000 штук немецкой и американской военной формы.
Все из 1,200 гражданских костюмов были сделаны из тканей, что использовались для пошива одежды в середине двадцатого века.
Все знаки отличия, что можно заметить в фильме, либо подлинные, либо являются точной копией.
Во всем сериале насчитывается около 500 ролей, у которых есть хотя бы несколько реплик.
Декорация леса была построена в одном из ангаров аэродрома. Декорация объединяла в себе как живые деревья, так и искусственные, созданные командой по спецэффектам.
В качестве снега в декорации леса было использовано около 150,000 килограммов переработанной бумаги, что на момент съёмок сериала являлось абсолютным рекордом. У создателей ушло четыре недели, чтобы полностью «покрыть снегом» съёмочную площадку.
Строительство декораций обошлось создателям в $17 миллионов.
При съёмках использовались специальные куклы в человеческий рост, которые могли принимать любую позицию, удерживая оружие и амуницию.
Во время съёмок одновременно работали пять кухонь, чтобы накормить всю съёмочную группу.
Площадь каждой из двух наиболее крупных декораций составляла около 4,500 квадратных метров.
Площадь натурной съёмочной площадки составляла 445 гектаров.
Название сериала взято из «Генри V» Уильяма Шекспира.
Команда по спецэффектам придумала новый способ применения «петард», небольшого заряда взрывчатого вещества, который имитирует пулевые ранения и отверстия. Команда по спецэффектам разработала специальные «петарды», которые использовали сжатый воздух, а не стандартную пиротехнику. Данное изобретение позволило актерам находиться ближе друг другу, когда происходит взрыв «петарды», не рискуя при этом поранить партнера по съёмкам.
На съёмках постоянно присутствовали пятьдесят специально обученных членов массовки. Эти люди прошли курс подготовки по обращению с оружием и в различных сценах играли либо британских, либо немецких солдат.
В концовке третьей серии говорится, что рядовой Альберт Блит умер в 1948 году. На самом деле, он успешно прошел курс лечения от ранения в шею и ушел из жизни в 1967 году из-за почечной недостаточности.
Капитан Дейл Дай, военный консультант на съёмках, также сыграл полковника Роберта Синка.
По версии Empire сериал занял 41 место в списке «50 величайших сериалов».



rip

source

rip

source

rip

source


Медиа Инфо на каждую серию:
General
Complete name : 01.Currahee.720p.x264.dts.sub.mkv
Format : Matroska
File size : 4.36 GiB
Duration : 1h 13mn
Overall bit rate : 8 531 Kbps
Encoded date : UTC 2010-05-19 00:02:20
Writing application : mkvmerge v3.4.0 ('Rapunzel') built on May 15 2010 09:38:20
Writing library : libebml v0.8.0 + libmatroska v0.9.0
Cover : Yes / Yes
Video
ID : 1
Format : AVC
Format/Info : Advanced Video Codec
Format profile : High@L4.1
Format settings, CABAC : Yes
Format settings, ReFrames : 8 frames
Muxing mode : Container profile=Unknown@4.1
Codec ID : V_MPEG4/ISO/AVC
Duration : 1h 13mn
Bit rate : 5 520 Kbps
Width : 1 280 pixels
Height : 720 pixels
Display aspect ratio : 16:9
Frame rate : 23.976 fps
Color space : YUV
Chroma subsampling : 4:2:0
Bit depth : 8 bits
Scan type : Progressive
Bits/(Pixel*Frame) : 0.250
Stream size : 2.73 GiB (63%)
Title : 1280x720 (16:9); 5511 Kbps; 23,976 fps; 0,255 bpp
Writing library : x264 core 94 r1583 7608d73
Encoding settings : cabac=1 / ref=8 / deblock=1:-3:-3 / analyse=0x3:0x113 / me=umh / subme=10 / psy=1 / psy_rd=0.85:0.00 / mixed_ref=1 / me_range=32 / chroma_me=1 / trellis=2 / 8x8dct=1 / cqm=0 / deadzone=21,11 / fast_pskip=1 / chroma_qp_offset=-2 / threads=6 / sliced_threads=0 / nr=0 / decimate=1 / interlaced=0 / constrained_intra=0 / bframes=8 / b_pyramid=2 / b_adapt=2 / b_bias=0 / direct=3 / weightb=1 / weightp=2 / keyint=250 / keyint_min=25 / scenecut=40 / intra_refresh=0 / rc_lookahead=0 / rc=2pass / mbtree=0 / bitrate=5520 / ratetol=1.0 / qcomp=0.60 / qpmin=10 / qpmax=51 / qpstep=4 / cplxblur=20.0 / qblur=0.5 / vbv_maxrate=50000 / vbv_bufsize=62500 / ip_ratio=1.40 / pb_ratio=1.30 / aq=1:0.75 / zones=100825,105335,q=30 / nal_hrd=none
Language : English
Matrix coefficients : BT.709-5, BT.1361, IEC 61966-2-4 709, SMPTE RP177
Audio #1
ID : 2
Format : DTS
Format/Info : Digital Theater Systems
Codec ID : A_DTS
Duration : 1h 13mn
Bit rate mode : Constant
Bit rate : 1 510 Kbps
Channel(s) : 6 channels
Channel positions : Front: L C R, Side: L R, LFE
Sampling rate : 48.0 KHz
Bit depth : 24 bits
Stream size : 791 MiB (18%)
Title : Glanz @ DTS 5.1 @ 1510 kbps
Language : Russian
Audio #2
ID : 3
Format : DTS
Format/Info : Digital Theater Systems
Codec ID : A_DTS
Duration : 1h 13mn
Bit rate mode : Constant
Bit rate : 1 510 Kbps
Channel(s) : 6 channels
Channel positions : Front: L C R, Side: L R, LFE
Sampling rate : 48.0 KHz
Bit depth : 24 bits
Stream size : 791 MiB (18%)
Title : Original @ DTS 5.1 @ 1510 kbps
Language : English
Text #1
ID : 4
Format : UTF-8
Codec ID : S_TEXT/UTF8
Codec ID/Info : UTF-8 Plain Text
Language : Russian
Text #2
ID : 5
Format : UTF-8
Codec ID : S_TEXT/UTF8
Codec ID/Info : UTF-8 Plain Text
Language : English
Menu
00:00:00.000 : en:00:00:00.000
00:05:00.000 : en:00:05:00.000
00:10:00.000 : en:00:10:00.000
00:15:00.000 : en:00:15:00.000
00:20:00.000 : en:00:20:00.000
00:25:00.000 : en:00:25:00.000
00:30:00.000 : en:00:30:00.000
00:35:00.000 : en:00:35:00.000
00:40:00.000 : en:00:40:00.000
00:45:00.000 : en:00:45:00.000
00:50:00.000 : en:00:50:00.000
00:55:00.000 : en:00:55:00.000
01:00:00.000 : en:01:00:00.000
01:05:00.000 : en:01:05:00.000
01:10:00.000 : en:01:10:00.000

General
Complete name : 02.Day.of.Days.720p.x264.dts.sub.mkv
Format : Matroska
File size : 4.21 GiB
Duration : 52mn 1s
Overall bit rate : 11.6 Mbps
Encoded date : UTC 2010-05-20 16:04:49
Writing application : mkvmerge v3.4.0 ('Rapunzel') built on May 15 2010 09:38:20
Writing library : libebml v0.8.0 + libmatroska v0.9.0
Cover : Yes / Yes
Video
ID : 1
Format : AVC
Format/Info : Advanced Video Codec
Format profile : High@L4.1
Format settings, CABAC : Yes
Format settings, ReFrames : 8 frames
Muxing mode : Container profile=Unknown@4.1
Codec ID : V_MPEG4/ISO/AVC
Duration : 52mn 1s
Bit rate : 8 600 Kbps
Width : 1 280 pixels
Height : 720 pixels
Display aspect ratio : 16:9
Frame rate : 23.976 fps
Color space : YUV
Chroma subsampling : 4:2:0
Bit depth : 8 bits
Scan type : Progressive
Bits/(Pixel*Frame) : 0.389
Stream size : 3.03 GiB (72%)
Title : 1280x720 (16:9); 8574 Kbps; 23,976 fps; 0,397 bpp
Writing library : x264 core 94 r1583 7608d73
Encoding settings : cabac=1 / ref=8 / deblock=1:-3:-3 / analyse=0x3:0x113 / me=umh / subme=10 / psy=1 / psy_rd=0.90:0.00 / mixed_ref=1 / me_range=32 / chroma_me=1 / trellis=2 / 8x8dct=1 / cqm=0 / deadzone=21,11 / fast_pskip=1 / chroma_qp_offset=-2 / threads=6 / sliced_threads=0 / nr=0 / decimate=1 / interlaced=0 / constrained_intra=0 / bframes=8 / b_pyramid=2 / b_adapt=2 / b_bias=0 / direct=3 / weightb=1 / weightp=2 / keyint=250 / keyint_min=25 / scenecut=40 / intra_refresh=0 / rc_lookahead=0 / rc=2pass / mbtree=0 / bitrate=8600 / ratetol=1.0 / qcomp=0.60 / qpmin=10 / qpmax=51 / qpstep=4 / cplxblur=20.0 / qblur=0.5 / vbv_maxrate=50000 / vbv_bufsize=62500 / ip_ratio=1.40 / pb_ratio=1.30 / aq=1:0.80 / zones=70290,74831,q=30 / nal_hrd=none
Language : English
Matrix coefficients : BT.709-5, BT.1361, IEC 61966-2-4 709, SMPTE RP177
Audio #1
ID : 2
Format : DTS
Format/Info : Digital Theater Systems
Codec ID : A_DTS
Duration : 52mn 1s
Bit rate mode : Constant
Bit rate : 1 510 Kbps
Channel(s) : 6 channels
Channel positions : Front: L C R, Side: L R, LFE
Sampling rate : 48.0 KHz
Bit depth : 24 bits
Stream size : 562 MiB (13%)
Title : Glanz @ DTS 5.1 @ 1510 kbps
Language : Russian
Audio #2
ID : 3
Format : DTS
Format/Info : Digital Theater Systems
Codec ID : A_DTS
Duration : 52mn 1s
Bit rate mode : Constant
Bit rate : 1 510 Kbps
Channel(s) : 6 channels
Channel positions : Front: L C R, Side: L R, LFE
Sampling rate : 48.0 KHz
Bit depth : 24 bits
Stream size : 562 MiB (13%)
Title : Original @ DTS 5.1 @ 1510 kbps
Language : English
Text #1
ID : 4
Format : UTF-8
Codec ID : S_TEXT/UTF8
Codec ID/Info : UTF-8 Plain Text
Language : Russian
Text #2
ID : 5
Format : UTF-8
Codec ID : S_TEXT/UTF8
Codec ID/Info : UTF-8 Plain Text
Language : English
Menu
00:00:00.000 : en:00:00:00.000
00:05:00.000 : en:00:05:00.000
00:10:00.000 : en:00:10:00.000
00:15:00.000 : en:00:15:00.000
00:20:00.000 : en:00:20:00.000
00:25:00.000 : en:00:25:00.000
00:30:00.000 : en:00:30:00.000
00:35:00.000 : en:00:35:00.000
00:40:00.000 : en:00:40:00.000
00:45:00.000 : en:00:45:00.000
00:50:00.000 : en:00:50:00.000

General
Complete name : 03.Carentan.720p.x264.dts.sub.mkv
Format : Matroska
File size : 4.37 GiB
Duration : 1h 5mn
Overall bit rate : 9 570 Kbps
Encoded date : UTC 2010-05-26 11:42:05
Writing application : mkvmerge v3.4.0 ('Rapunzel') built on May 15 2010 09:38:20
Writing library : libebml v0.8.0 + libmatroska v0.9.0
Cover : Yes / Yes
Video
ID : 1
Format : AVC
Format/Info : Advanced Video Codec
Format profile : High@L4.1
Format settings, CABAC : Yes
Format settings, ReFrames : 8 frames
Muxing mode : Container profile=Unknown@4.1
Codec ID : V_MPEG4/ISO/AVC
Duration : 1h 5mn
Bit rate : 6 555 Kbps
Width : 1 280 pixels
Height : 720 pixels
Display aspect ratio : 16:9
Frame rate : 23.976 fps
Color space : YUV
Chroma subsampling : 4:2:0
Bit depth : 8 bits
Scan type : Progressive
Bits/(Pixel*Frame) : 0.297
Stream size : 2.90 GiB (66%)
Title : 1280x720 (16:9); 6548 Kbps; 23,976 fps; 0,303 bpp
Writing library : x264 core 94 r1583 7608d73
Encoding settings : cabac=1 / ref=8 / deblock=1:-3:-3 / analyse=0x3:0x113 / me=umh / subme=10 / psy=1 / psy_rd=0.90:0.00 / mixed_ref=1 / me_range=32 / chroma_me=1 / trellis=2 / 8x8dct=1 / cqm=0 / deadzone=21,11 / fast_pskip=1 / chroma_qp_offset=-2 / threads=6 / sliced_threads=0 / nr=0 / decimate=1 / interlaced=0 / constrained_intra=0 / bframes=8 / b_pyramid=2 / b_adapt=2 / b_bias=0 / direct=3 / weightb=1 / weightp=2 / keyint=250 / keyint_min=25 / scenecut=40 / intra_refresh=0 / rc_lookahead=0 / rc=2pass / mbtree=0 / bitrate=6555 / ratetol=1.0 / qcomp=0.60 / qpmin=10 / qpmax=51 / qpstep=4 / cplxblur=20.0 / qblur=0.5 / vbv_maxrate=50000 / vbv_bufsize=62500 / ip_ratio=1.40 / pb_ratio=1.30 / aq=1:0.90 / zones=89465,94007,q=30 / nal_hrd=none
Language : English
Matrix coefficients : BT.709-5, BT.1361, IEC 61966-2-4 709, SMPTE RP177
Audio #1
ID : 2
Format : DTS
Format/Info : Digital Theater Systems
Codec ID : A_DTS
Duration : 1h 5mn
Bit rate mode : Constant
Bit rate : 1 510 Kbps
Channel(s) : 6 channels
Channel positions : Front: L C R, Side: L R, LFE
Sampling rate : 48.0 KHz
Bit depth : 24 bits
Stream size : 706 MiB (16%)
Title : Glanz @ DTS 5.1 @ 1510 kbps
Language : Russian
Audio #2
ID : 3
Format : DTS
Format/Info : Digital Theater Systems
Codec ID : A_DTS
Duration : 1h 5mn
Bit rate mode : Constant
Bit rate : 1 510 Kbps
Channel(s) : 6 channels
Channel positions : Front: L C R, Side: L R, LFE
Sampling rate : 48.0 KHz
Bit depth : 24 bits
Stream size : 706 MiB (16%)
Title : Original @ DTS 5.1 @ 1510 kbps
Language : English
Text #1
ID : 4
Format : UTF-8
Codec ID : S_TEXT/UTF8
Codec ID/Info : UTF-8 Plain Text
Language : Russian
Text #2
ID : 5
Format : UTF-8
Codec ID : S_TEXT/UTF8
Codec ID/Info : UTF-8 Plain Text
Language : English
Menu
00:00:00.000 : en:00:00:00.000
00:05:00.000 : en:00:05:00.000
00:10:00.000 : en:00:10:00.000
00:15:00.000 : en:00:15:00.000
00:20:00.000 : en:00:20:00.000
00:25:00.000 : en:00:25:00.000
00:30:00.000 : en:00:30:00.000
00:35:00.000 : en:00:35:00.000
00:40:00.000 : en:00:40:00.000
00:45:00.000 : en:00:45:00.000
00:50:00.000 : en:00:50:00.000
00:55:00.000 : en:00:55:00.000
01:00:00.000 : en:01:00:00.000
01:05:00.000 : en:01:05:00.000

General
Complete name : 04.Replacements.720p.x264.dts.sub.mkv
Format : Matroska
File size : 4.21 GiB
Duration : 59mn 42s
Overall bit rate : 10.1 Mbps
Encoded date : UTC 2010-05-28 09:36:23
Writing application : mkvmerge v3.4.0 ('Rapunzel') built on May 15 2010 09:38:20
Writing library : libebml v0.8.0 + libmatroska v0.9.0
Cover : Yes / Yes
Video
ID : 1
Format : AVC
Format/Info : Advanced Video Codec
Format profile : High@L4.1
Format settings, CABAC : Yes
Format settings, ReFrames : 8 frames
Muxing mode : Container profile=Unknown@4.1
Codec ID : V_MPEG4/ISO/AVC
Duration : 59mn 42s
Bit rate : 7 076 Kbps
Width : 1 280 pixels
Height : 720 pixels
Display aspect ratio : 16:9
Frame rate : 23.976 fps
Color space : YUV
Chroma subsampling : 4:2:0
Bit depth : 8 bits
Scan type : Progressive
Bits/(Pixel*Frame) : 0.320
Stream size : 2.87 GiB (68%)
Title : 1280x720 (16:9); 7072 Kbps; 23,976 fps; 0,327 bpp
Writing library : x264 core 94 r1583 7608d73
Encoding settings : cabac=1 / ref=8 / deblock=1:-3:-3 / analyse=0x3:0x113 / me=umh / subme=10 / psy=1 / psy_rd=0.90:0.00 / mixed_ref=1 / me_range=32 / chroma_me=1 / trellis=2 / 8x8dct=1 / cqm=0 / deadzone=21,11 / fast_pskip=1 / chroma_qp_offset=-2 / threads=6 / sliced_threads=0 / nr=0 / decimate=1 / interlaced=0 / constrained_intra=0 / bframes=8 / b_pyramid=2 / b_adapt=2 / b_bias=0 / direct=3 / weightb=1 / weightp=2 / keyint=250 / keyint_min=25 / scenecut=40 / intra_refresh=0 / rc_lookahead=0 / rc=2pass / mbtree=0 / bitrate=7076 / ratetol=1.0 / qcomp=0.60 / qpmin=10 / qpmax=51 / qpstep=4 / cplxblur=20.0 / qblur=0.5 / vbv_maxrate=50000 / vbv_bufsize=62500 / ip_ratio=1.40 / pb_ratio=1.30 / aq=1:0.90 / nal_hrd=none
Language : English
Matrix coefficients : BT.709-5, BT.1361, IEC 61966-2-4 709, SMPTE RP177
Audio #1
ID : 2
Format : DTS
Format/Info : Digital Theater Systems
Codec ID : A_DTS
Duration : 59mn 42s
Bit rate mode : Constant
Bit rate : 1 510 Kbps
Channel(s) : 6 channels
Channel positions : Front: L C R, Side: L R, LFE
Sampling rate : 48.0 KHz
Bit depth : 24 bits
Stream size : 645 MiB (15%)
Title : Glanz @ DTS 5.1 @ 1510 kbps
Language : Russian
Audio #2
ID : 3
Format : DTS
Format/Info : Digital Theater Systems
Codec ID : A_DTS
Duration : 59mn 42s
Bit rate mode : Constant
Bit rate : 1 510 Kbps
Channel(s) : 6 channels
Channel positions : Front: L C R, Side: L R, LFE
Sampling rate : 48.0 KHz
Bit depth : 24 bits
Stream size : 645 MiB (15%)
Title : Original @ DTS 5.1 @ 1510 kbps
Language : English
Text #1
ID : 4
Format : UTF-8
Codec ID : S_TEXT/UTF8
Codec ID/Info : UTF-8 Plain Text
Language : Russian
Text #2
ID : 5
Format : UTF-8
Codec ID : S_TEXT/UTF8
Codec ID/Info : UTF-8 Plain Text
Language : English
Menu
00:00:00.000 : en:00:00:00.000
00:05:00.000 : en:00:05:00.000
00:10:00.000 : en:00:10:00.000
00:15:00.000 : en:00:15:00.000
00:20:00.000 : en:00:20:00.000
00:25:00.000 : en:00:25:00.000
00:30:00.000 : en:00:30:00.000
00:35:00.000 : en:00:35:00.000
00:40:00.000 : en:00:40:00.000
00:45:00.000 : en:00:45:00.000
00:50:00.000 : en:00:50:00.000
00:55:00.000 : en:00:55:00.000

General
Complete name : 05.Crossroads.720p.x264.dts.sub.mkv
Format : Matroska
File size : 4.20 GiB
Duration : 55mn 41s
Overall bit rate : 10.8 Mbps
Encoded date : UTC 2010-05-29 07:20:28
Writing application : mkvmerge v3.4.0 ('Rapunzel') built on May 15 2010 09:38:20
Writing library : libebml v0.8.0 + libmatroska v0.9.0
Cover : Yes / Yes
Video
ID : 1
Format : AVC
Format/Info : Advanced Video Codec
Format profile : High@L4.1
Format settings, CABAC : Yes
Format settings, ReFrames : 8 frames
Muxing mode : Container profile=Unknown@4.1
Codec ID : V_MPEG4/ISO/AVC
Duration : 55mn 41s
Bit rate : 7 800 Kbps
Width : 1 280 pixels
Height : 720 pixels
Display aspect ratio : 16:9
Frame rate : 23.976 fps
Color space : YUV
Chroma subsampling : 4:2:0
Bit depth : 8 bits
Scan type : Progressive
Bits/(Pixel*Frame) : 0.353
Stream size : 2.95 GiB (70%)
Title : 1280x720 (16:9); 7785 Kbps; 23,976 fps; 0,360 bpp
Writing library : x264 core 94 r1583 7608d73
Encoding settings : cabac=1 / ref=8 / deblock=1:-3:-3 / analyse=0x3:0x113 / me=umh / subme=10 / psy=1 / psy_rd=0.90:0.00 / mixed_ref=1 / me_range=32 / chroma_me=1 / trellis=2 / 8x8dct=1 / cqm=0 / deadzone=21,11 / fast_pskip=1 / chroma_qp_offset=-2 / threads=6 / sliced_threads=0 / nr=0 / decimate=1 / interlaced=0 / constrained_intra=0 / bframes=8 / b_pyramid=2 / b_adapt=2 / b_bias=0 / direct=3 / weightb=1 / weightp=2 / keyint=250 / keyint_min=25 / scenecut=40 / intra_refresh=0 / rc_lookahead=0 / rc=2pass / mbtree=0 / bitrate=7800 / ratetol=1.0 / qcomp=0.60 / qpmin=10 / qpmax=51 / qpstep=4 / cplxblur=20.0 / qblur=0.5 / vbv_maxrate=50000 / vbv_bufsize=62500 / ip_ratio=1.40 / pb_ratio=1.30 / aq=1:0.90 / zones=75580,80111,q=30 / nal_hrd=none
Language : English
Matrix coefficients : BT.709-5, BT.1361, IEC 61966-2-4 709, SMPTE RP177
Audio #1
ID : 2
Format : DTS
Format/Info : Digital Theater Systems
Codec ID : A_DTS
Duration : 55mn 41s
Bit rate mode : Constant
Bit rate : 1 510 Kbps
Channel(s) : 6 channels
Channel positions : Front: L C R, Side: L R, LFE
Sampling rate : 48.0 KHz
Bit depth : 24 bits
Stream size : 601 MiB (14%)
Title : Glanz @ DTS 5.1 @ 1510 kbps
Language : Russian
Audio #2
ID : 3
Format : DTS
Format/Info : Digital Theater Systems
Codec ID : A_DTS
Duration : 55mn 41s
Bit rate mode : Constant
Bit rate : 1 510 Kbps
Channel(s) : 6 channels
Channel positions : Front: L C R, Side: L R, LFE
Sampling rate : 48.0 KHz
Bit depth : 24 bits
Stream size : 601 MiB (14%)
Title : Original @ DTS 5.1 @ 1510 kbps
Language : English
Text #1
ID : 4
Format : UTF-8
Codec ID : S_TEXT/UTF8
Codec ID/Info : UTF-8 Plain Text
Language : Russian
Text #2
ID : 5
Format : UTF-8
Codec ID : S_TEXT/UTF8
Codec ID/Info : UTF-8 Plain Text
Language : English
Menu
00:00:00.000 : en:00:00:00.000
00:05:00.000 : en:00:05:00.000
00:10:00.000 : en:00:10:00.000
00:15:00.000 : en:00:15:00.000
00:20:00.000 : en:00:20:00.000
00:25:00.000 : en:00:25:00.000
00:30:00.000 : en:00:30:00.000
00:35:00.000 : en:00:35:00.000
00:40:00.000 : en:00:40:00.000
00:45:00.000 : en:00:45:00.000
00:50:00.000 : en:00:50:00.000
00:55:00.000 : en:00:55:00.000

General
Complete name : 06.Bastogne.720p.x264.dts.sub.mkv
Format : Matroska
File size : 4.36 GiB
Duration : 1h 7mn
Overall bit rate : 9 270 Kbps
Encoded date : UTC 2010-06-01 15:30:11
Writing application : mkvmerge v3.4.0 ('Rapunzel') built on May 15 2010 09:38:20
Writing library : libebml v0.8.0 + libmatroska v0.9.0
Cover : Yes / Yes
Video
ID : 1
Format : AVC
Format/Info : Advanced Video Codec
Format profile : High@L4.1
Format settings, CABAC : Yes
Format settings, ReFrames : 8 frames
Muxing mode : Container profile=Unknown@4.1
Codec ID : V_MPEG4/ISO/AVC
Duration : 1h 7mn
Bit rate : 6 270 Kbps
Width : 1 280 pixels
Height : 720 pixels
Display aspect ratio : 16:9
Frame rate : 23.976 fps
Color space : YUV
Chroma subsampling : 4:2:0
Bit depth : 8 bits
Scan type : Progressive
Bits/(Pixel*Frame) : 0.284
Stream size : 2.85 GiB (65%)
Title : 1280x720 (16:9); 6260 Kbps; 23,976 fps; 0,290 bpp
Writing library : x264 core 94 r1583 7608d73
Encoding settings : cabac=1 / ref=8 / deblock=1:-3:-3 / analyse=0x3:0x113 / me=umh / subme=10 / psy=1 / psy_rd=0.90:0.00 / mixed_ref=1 / me_range=32 / chroma_me=1 / trellis=2 / 8x8dct=1 / cqm=0 / deadzone=21,11 / fast_pskip=1 / chroma_qp_offset=-2 / threads=6 / sliced_threads=0 / nr=0 / decimate=1 / interlaced=0 / constrained_intra=0 / bframes=8 / b_pyramid=2 / b_adapt=2 / b_bias=0 / direct=3 / weightb=1 / weightp=2 / keyint=250 / keyint_min=25 / scenecut=40 / intra_refresh=0 / rc_lookahead=0 / rc=2pass / mbtree=0 / bitrate=6270 / ratetol=1.0 / qcomp=0.65 / qpmin=10 / qpmax=51 / qpstep=4 / cplxblur=20.0 / qblur=0.5 / vbv_maxrate=50000 / vbv_bufsize=62500 / ip_ratio=1.40 / pb_ratio=1.30 / aq=1:0.85 / zones=92125,96671,q=30 / nal_hrd=none
Language : English
Matrix coefficients : BT.709-5, BT.1361, IEC 61966-2-4 709, SMPTE RP177
Audio #1
ID : 2
Format : DTS
Format/Info : Digital Theater Systems
Codec ID : A_DTS
Duration : 1h 7mn
Bit rate mode : Constant
Bit rate : 1 510 Kbps
Channel(s) : 6 channels
Channel positions : Front: L C R, Side: L R, LFE
Sampling rate : 48.0 KHz
Bit depth : 24 bits
Stream size : 727 MiB (16%)
Title : Glanz @ DTS 5.1 @ 1510 kbps
Language : Russian
Audio #2
ID : 3
Format : DTS
Format/Info : Digital Theater Systems
Codec ID : A_DTS
Duration : 1h 7mn
Bit rate mode : Constant
Bit rate : 1 510 Kbps
Channel(s) : 6 channels
Channel positions : Front: L C R, Side: L R, LFE
Sampling rate : 48.0 KHz
Bit depth : 24 bits
Stream size : 727 MiB (16%)
Title : Original @ DTS 5.1 @ 1510 kbps
Language : English
Text #1
ID : 4
Format : UTF-8
Codec ID : S_TEXT/UTF8
Codec ID/Info : UTF-8 Plain Text
Language : Russian
Text #2
ID : 5
Format : UTF-8
Codec ID : S_TEXT/UTF8
Codec ID/Info : UTF-8 Plain Text
Language : English
Menu
00:00:00.000 : en:00:00:00.000
00:05:00.000 : en:00:05:00.000
00:10:00.000 : en:00:10:00.000
00:15:00.000 : en:00:15:00.000
00:20:00.000 : en:00:20:00.000
00:25:00.000 : en:00:25:00.000
00:30:00.000 : en:00:30:00.000
00:35:00.000 : en:00:35:00.000
00:40:00.000 : en:00:40:00.000
00:45:00.000 : en:00:45:00.000
00:50:00.000 : en:00:50:00.000
00:55:00.000 : en:00:55:00.000
01:00:00.000 : en:01:00:00.000
01:05:00.000 : en:01:05:00.000

General
Complete name : 08.The.Last.Patrol.720p.x264.dts.sub.mkv
Format : Matroska
File size : 4.37 GiB
Duration : 58mn 59s
Overall bit rate : 10.6 Mbps
Encoded date : UTC 2010-06-03 06:37:03
Writing application : mkvmerge v3.4.0 ('Rapunzel') built on May 15 2010 09:38:20
Writing library : libebml v0.8.0 + libmatroska v0.9.0
Cover : Yes / Yes
Video
ID : 1
Format : AVC
Format/Info : Advanced Video Codec
Format profile : High@L4.1
Format settings, CABAC : Yes
Format settings, ReFrames : 8 frames
Muxing mode : Container profile=Unknown@4.1
Codec ID : V_MPEG4/ISO/AVC
Duration : 58mn 59s
Bit rate : 7 590 Kbps
Width : 1 280 pixels
Height : 720 pixels
Display aspect ratio : 16:9
Frame rate : 23.976 fps
Color space : YUV
Chroma subsampling : 4:2:0
Bit depth : 8 bits
Scan type : Progressive
Bits/(Pixel*Frame) : 0.343
Stream size : 3.04 GiB (70%)
Title : 1280x720 (16:9); 7586 Kbps; 23,976 fps; 0,351 bpp
Writing library : x264 core 94 r1583 7608d73
Encoding settings : cabac=1 / ref=8 / deblock=1:-3:-3 / analyse=0x3:0x113 / me=umh / subme=10 / psy=1 / psy_rd=0.90:0.00 / mixed_ref=1 / me_range=32 / chroma_me=1 / trellis=2 / 8x8dct=1 / cqm=0 / deadzone=21,11 / fast_pskip=1 / chroma_qp_offset=-2 / threads=6 / sliced_threads=0 / nr=0 / decimate=1 / interlaced=0 / constrained_intra=0 / bframes=8 / b_pyramid=2 / b_adapt=2 / b_bias=0 / direct=3 / weightb=1 / weightp=2 / keyint=250 / keyint_min=25 / scenecut=40 / intra_refresh=0 / rc_lookahead=0 / rc=2pass / mbtree=0 / bitrate=7590 / ratetol=1.0 / qcomp=0.60 / qpmin=10 / qpmax=51 / qpstep=4 / cplxblur=20.0 / qblur=0.5 / vbv_maxrate=50000 / vbv_bufsize=62500 / ip_ratio=1.40 / pb_ratio=1.30 / aq=1:0.80 / nal_hrd=none
Language : English
Matrix coefficients : BT.709-5, BT.1361, IEC 61966-2-4 709, SMPTE RP177
Audio #1
ID : 2
Format : DTS
Format/Info : Digital Theater Systems
Codec ID : A_DTS
Duration : 58mn 59s
Bit rate mode : Constant
Bit rate : 1 510 Kbps
Channel(s) : 6 channels
Channel positions : Front: L C R, Side: L R, LFE
Sampling rate : 48.0 KHz
Bit depth : 24 bits
Stream size : 637 MiB (14%)
Title : Glanz @ DTS 5.1 @ 1510 kbps
Language : Russian
Audio #2
ID : 3
Format : DTS
Format/Info : Digital Theater Systems
Codec ID : A_DTS
Duration : 58mn 59s
Bit rate mode : Constant
Bit rate : 1 510 Kbps
Channel(s) : 6 channels
Channel positions : Front: L C R, Side: L R, LFE
Sampling rate : 48.0 KHz
Bit depth : 24 bits
Stream size : 637 MiB (14%)
Title : Original @ DTS 5.1 @ 1510 kbps
Language : English
Text #1
ID : 4
Format : UTF-8
Codec ID : S_TEXT/UTF8
Codec ID/Info : UTF-8 Plain Text
Language : Russian
Text #2
ID : 5
Format : UTF-8
Codec ID : S_TEXT/UTF8
Codec ID/Info : UTF-8 Plain Text
Language : English
Menu
00:00:00.000 : en:00:00:00.000
00:05:00.000 : en:00:05:00.000
00:10:00.000 : en:00:10:00.000
00:15:00.000 : en:00:15:00.000
00:20:00.000 : en:00:20:00.000
00:25:00.000 : en:00:25:00.000
00:30:00.000 : en:00:30:00.000
00:35:00.000 : en:00:35:00.000
00:40:00.000 : en:00:40:00.000
00:45:00.000 : en:00:45:00.000
00:50:00.000 : en:00:50:00.000
00:55:00.000 : en:00:55:00.000

General
Complete name : 09.Why.We.Fight.720p.x264.dts.sub.mkv
Format : Matroska
File size : 4.21 GiB
Duration : 58mn 11s
Overall bit rate : 10.4 Mbps
Encoded date : UTC 2010-06-05 05:55:54
Writing application : mkvmerge v3.4.0 ('Rapunzel') built on May 15 2010 09:38:20
Writing library : libebml v0.8.0 + libmatroska v0.9.0
Cover : Yes / Yes
Video
ID : 1
Format : AVC
Format/Info : Advanced Video Codec
Format profile : High@L4.1
Format settings, CABAC : Yes
Format settings, ReFrames : 8 frames
Muxing mode : Container profile=Unknown@4.1
Codec ID : V_MPEG4/ISO/AVC
Duration : 58mn 11s
Bit rate : 7 345 Kbps
Width : 1 280 pixels
Height : 720 pixels
Display aspect ratio : 16:9
Frame rate : 23.976 fps
Color space : YUV
Chroma subsampling : 4:2:0
Bit depth : 8 bits
Scan type : Progressive
Bits/(Pixel*Frame) : 0.332
Stream size : 2.90 GiB (69%)
Title : 1280x720 (16:9); 7332 Kbps; 23,976 fps; 0,339 bpp
Writing library : x264 core 94 r1583 7608d73
Encoding settings : cabac=1 / ref=8 / deblock=1:-3:-3 / analyse=0x3:0x113 / me=umh / subme=10 / psy=1 / psy_rd=1.00:0.00 / mixed_ref=1 / me_range=32 / chroma_me=1 / trellis=2 / 8x8dct=1 / cqm=0 / deadzone=21,11 / fast_pskip=1 / chroma_qp_offset=-2 / threads=6 / sliced_threads=0 / nr=0 / decimate=1 / interlaced=0 / constrained_intra=0 / bframes=8 / b_pyramid=2 / b_adapt=2 / b_bias=0 / direct=3 / weightb=1 / weightp=2 / keyint=250 / keyint_min=25 / scenecut=40 / intra_refresh=0 / rc_lookahead=0 / rc=2pass / mbtree=0 / bitrate=7345 / ratetol=1.0 / qcomp=0.60 / qpmin=10 / qpmax=51 / qpstep=4 / cplxblur=20.0 / qblur=0.5 / vbv_maxrate=50000 / vbv_bufsize=62500 / ip_ratio=1.40 / pb_ratio=1.30 / aq=1:1.00 / zones=79080,83711,q=30 / nal_hrd=none
Language : English
Matrix coefficients : BT.709-5, BT.1361, IEC 61966-2-4 709, SMPTE RP177
Audio #1
ID : 2
Format : DTS
Format/Info : Digital Theater Systems
Codec ID : A_DTS
Duration : 58mn 11s
Bit rate mode : Constant
Bit rate : 1 510 Kbps
Channel(s) : 6 channels
Channel positions : Front: L C R, Side: L R, LFE
Sampling rate : 48.0 KHz
Bit depth : 24 bits
Stream size : 628 MiB (15%)
Title : Glanz @ DTS 5.1 @ 1510 kbps
Language : Russian
Audio #2
ID : 3
Format : DTS
Format/Info : Digital Theater Systems
Codec ID : A_DTS
Duration : 58mn 11s
Bit rate mode : Constant
Bit rate : 1 510 Kbps
Channel(s) : 6 channels
Channel positions : Front: L C R, Side: L R, LFE
Sampling rate : 48.0 KHz
Bit depth : 24 bits
Stream size : 628 MiB (15%)
Title : Original @ DTS 5.1 @ 1510 kbps
Language : English
Text #1
ID : 4
Format : UTF-8
Codec ID : S_TEXT/UTF8
Codec ID/Info : UTF-8 Plain Text
Language : Russian
Text #2
ID : 5
Format : UTF-8
Codec ID : S_TEXT/UTF8
Codec ID/Info : UTF-8 Plain Text
Language : English
Menu
00:00:00.000 : en:00:00:00.000
00:05:00.000 : en:00:05:00.000
00:10:00.000 : en:00:10:00.000
00:15:00.000 : en:00:15:00.000
00:20:00.000 : en:00:20:00.000
00:25:00.000 : en:00:25:00.000
00:30:00.000 : en:00:30:00.000
00:35:00.000 : en:00:35:00.000
00:40:00.000 : en:00:40:00.000
00:45:00.000 : en:00:45:00.000
00:50:00.000 : en:00:50:00.000
00:55:00.000 : en:00:55:00.000

General
Complete name : 10.Points.720p.x264.dts.sub.mkv
Format : Matroska
File size : 4.36 GiB
Duration : 1h 2mn
Overall bit rate : 10.0 Mbps
Encoded date : UTC 2010-06-12 01:29:38
Writing application : mkvmerge v4.0.0 ('The Stars were mine') built on Jun 5 2010 17:44:09
Writing library : libebml v1.0.0 + libmatroska v1.0.0
Cover : Yes / Yes
Video
ID : 1
Format : AVC
Format/Info : Advanced Video Codec
Format profile : High@L4.1
Format settings, CABAC : Yes
Format settings, ReFrames : 8 frames
Muxing mode : Container profile=Unknown@4.1
Codec ID : V_MPEG4/ISO/AVC
Duration : 1h 2mn
Bit rate : 7 020 Kbps
Width : 1 280 pixels
Height : 720 pixels
Display aspect ratio : 16:9
Frame rate : 23.976 fps
Color space : YUV
Chroma subsampling : 4:2:0
Bit depth : 8 bits
Scan type : Progressive
Bits/(Pixel*Frame) : 0.318
Stream size : 2.96 GiB (68%)
Title : 1280x720 (16:9); 7004 Kbps; 23,976 fps; 0,324 bpp
Writing library : x264 core 94 r1583 7608d73
Encoding settings : cabac=1 / ref=8 / deblock=1:-3:-3 / analyse=0x3:0x113 / me=umh / subme=10 / psy=1 / psy_rd=0.90:0.00 / mixed_ref=1 / me_range=32 / chroma_me=1 / trellis=2 / 8x8dct=1 / cqm=0 / deadzone=21,11 / fast_pskip=1 / chroma_qp_offset=-2 / threads=6 / sliced_threads=0 / nr=0 / decimate=1 / interlaced=0 / constrained_intra=0 / bframes=8 / b_pyramid=2 / b_adapt=2 / b_bias=0 / direct=3 / weightb=1 / weightp=2 / keyint=250 / keyint_min=25 / scenecut=40 / intra_refresh=0 / rc_lookahead=0 / rc=2pass / mbtree=0 / bitrate=7020 / ratetol=1.0 / qcomp=0.60 / qpmin=10 / qpmax=51 / qpstep=4 / cplxblur=20.0 / qblur=0.5 / vbv_maxrate=50000 / vbv_bufsize=62500 / ip_ratio=1.40 / pb_ratio=1.30 / aq=1:0.85 / zones=84820,89543,q=30 / nal_hrd=none
Matrix coefficients : BT.709-5, BT.1361, IEC 61966-2-4 709, SMPTE RP177
Audio #1
ID : 2
Format : DTS
Format/Info : Digital Theater Systems
Codec ID : A_DTS
Duration : 1h 2mn
Bit rate mode : Constant
Bit rate : 1 510 Kbps
Channel(s) : 6 channels
Channel positions : Front: L C R, Side: L R, LFE
Sampling rate : 48.0 KHz
Bit depth : 24 bits
Stream size : 672 MiB (15%)
Title : Glanz @ DTS 5.1 @ 1510
Language : Russian
Audio #2
ID : 3
Format : DTS
Format/Info : Digital Theater Systems
Codec ID : A_DTS
Duration : 1h 2mn
Bit rate mode : Constant
Bit rate : 1 510 Kbps
Channel(s) : 6 channels
Channel positions : Front: L C R, Side: L R, LFE
Sampling rate : 48.0 KHz
Bit depth : 24 bits
Stream size : 672 MiB (15%)
Title : Original @ DTS 5.1 @ 1510
Text #1
ID : 4
Format : UTF-8
Codec ID : S_TEXT/UTF8
Codec ID/Info : UTF-8 Plain Text
Language : Russian
Text #2
ID : 5
Format : UTF-8
Codec ID : S_TEXT/UTF8
Codec ID/Info : UTF-8 Plain Text
Menu
00:00:00.000 : en:00:00:00.000
00:05:00.000 : en:00:05:00.000
00:10:00.000 : en:00:10:00.000
00:15:00.000 : en:00:15:00.000
00:20:00.000 : en:00:20:00.000
00:25:00.000 : en:00:25:00.000
00:30:00.000 : en:00:30:00.000
00:35:00.000 : en:00:35:00.000
00:40:00.000 : en:00:40:00.000
00:45:00.000 : en:00:45:00.000
00:50:00.000 : en:00:50:00.000
00:55:00.000 : en:00:55:00.000
01:00:00.000 : en:01:00:00.000



   Похожие торренты   Торрент   Размер 
В этой теме нет новых непрочитанных сообщений. Братья по оружию / Band of Brothers [01-10 из 10] (2001) HDTVRip от HqRipAll

175 | 33

6.84 ГБ

В этой теме нет новых непрочитанных сообщений. Братья по оружию / Band of Brothers [S01] (2001) HDRip от Scarabey | Р

757 | 107

9.58 ГБ

В этой теме нет новых непрочитанных сообщений. Братья по оружию / Band of Brothers [01-10 из 10] (2001) BDRip от HQCLUB

34 | 5

14.08 ГБ

В этой теме нет новых непрочитанных сообщений. Братья по оружию / Band of Brothers [01-10 из 10] (2001) BDRip от HQ-ViDEO

96 | 91

16.18 ГБ

В этой теме нет новых непрочитанных сообщений. Братья по оружию / Band of Brothers [01-10 из 10] (2001) BDRip 720p от MediaClub

53 | 54

50.94 ГБ

В этой теме нет новых непрочитанных сообщений. Братья по оружию / Band of Brothers (2001) BDRip 1080 от HDReactor

94 | 112

67.97 ГБ

В этой теме нет новых непрочитанных сообщений. Братья по оружию / Band of Brothers [01-10 из 10] (2001) BDRip 720p от NoLimits-Team

312 | 23

26.3 ГБ




Вы не можете начинать темы
Вы не можете отвечать на сообщения
Вы не можете редактировать свои сообщения
Вы не можете удалять свои сообщения
Вы не можете добавлять вложения

Перейти:  
Для Мосгорсуда, Роскомнадзора и рекламодателей: mosgorsud-torrent[собачка]yandex.ru
 Вход
ppkBB3cker v.2 © 2008-2014 @ PPK
[ Time : 2.342s | 15 Queries | GZIP : Off ]

Торрент трекер RUTOR.IN, Не можете зайти на rutor.org? Какой новый адрес рутор? Какое зеркало рутор? Не работает rutor.org и зеркала? Тогда наш торрент специально для вас. Rutor.in неофициальное зеркало rutor. В случае если у Вас заблокирован rutor или вдруг Вы не можете на него зайти, то Вы без труда сможете скачать бесплатно и без рекламы последние новинки кино, игр, сериалов и прочего у нас, на Rutor.in. Не нужно использовать прокси, чтобы зайти на рутор, достаточно воспользоваться нашим ресурсом. Все новые фильмы, игры, сериалы, книги и музыка за 2013 и 2014 годы через торрент бесплатно. Скачивайте фильмы в хорошем качестве, игры для пк, xbox, playstation без регистрации. У нас вы найдете новые Зарубежные сериалы и Русские сериалы 2013, 2014, 2015 годов. Оставайтесь с нами, качайте любимые фильмы, игры, сериалы, книги и музыку.