img image001 image001 image001 image001 image001 image001 image001 image001 image001 image001 image001 image001 image001 image001 image001

Planets Sun Sun Sun
Статистика раздачи
Автор: Снежана | Размер: 2.91 ГБ | Добавлен: 25 июл 2013
Раздают: 251    Качают: 13
Скачать торрент
Скачать торрент
Описание торрента

СообщениеДобавлено: 25 июл 2013 

#77

Страна: Россия
Год выпуска: 2010
Производство: Кинокомпания "Соло фильм", Централ Партнершип
Жанр: военный
Продолжительность: 4 х 00:52:00
Режиссёр: Александр Высоковский

В ролях: Петр Федоров, Андрей Мерзликин, Сергей Бурунов, Полина Сыркина, Александр Высоковский, Петр Баранчеев, Лев Гольман, Михаил Есьман, Александр Ефремов, Александр Загрудный, Александр Либаров, Владимир Дягилев, Сергей Шимко, Виктор Молчан, Виктор Васильев, Андрей Сенкевич, Алексей Сенчило, Владас Багдонас, Вячеслав Павлють, Евгений Бахар, Александр Солодилов, Александр Станилевич, Максим Ковалевский, Дмитрий Тесловский, Дмитрий Тумас, Павел Заяц, Александр Назаревич, Андрей Карако, Сергей Власов, Вячеслав Шакалидо, Иван Павлов, Сергей Савенков, Игорь Добровольский, Виктор Жулин, Владимир Лазаренко, Валерий Леонченко, Василий Терешко...

Описание: Декабрь 1944 года. Советские войска вплотную подошли к крупному польскому городу, стратегически важному пункту немецкой обороны. Город сильно укреплён немцами, и штурм может привести к огромным потерям среди наступающих. Резидент разведки, действующий в городе, передаёт информацию о том, что весь город заминирован немцами и будет взорван, когда в него вступят советские части. Разведгруппа, получившая от него информацию, уничтожена: в живых остался только один боец по прозвищу Художник. Его случайно находит в лесу под городом другая группа разведчиков под руководством лейтенанта Папанина, работающая по своему заданию.






Исходник: DVD9 R5
Качество: DVDRip-AVC
Формат: MKV

Видео: 720x400@760x400 (1,9:1), 25 fps, H264 ~ 1807 kbps avg, 0.251 bit/pixel
Аудио: 48 kHz, AC3, 2 ch, 192.00 kbps

Раздача от:

Общее
Полное имя : Bez.prava.na.oshibku.2011.O.DVDRip-AVC_[Youtracker]_by_avproh_1.mkv
Формат : Matroska
Версия формата : Version 2
Размер файла : 744 Мбайт
Продолжительность : 52 м.
Общий поток : 2001 Кбит/сек
Дата кодирования : UTC 2012-07-23 19:41:57
Программа кодирования : mkvmerge v5.0.1 ('Es ist Sommer') built on Nov 6 2011 16:23:40
Библиотека кодирования : libebml v1.2.2 + libmatroska v1.3.0

Видео
Идентификатор : 1
Формат : AVC
Формат/Информация : Advanced Video Codec
Профиль формата : High@L4.1
Параметр CABAC формата : Да
Параметр ReFrames формата : 11 кадров
Идентификатор кодека : V_MPEG4/ISO/AVC
Продолжительность : 52 м.
Битрейт : 1807 Кбит/сек
Ширина : 720 пикселей
Высота : 400 пикселей
Соотношение сторон : 1,900
Соотношение сторон в оригинале : 1,901
Частота кадров : 25,000 кадров/сек
Цветовое пространство : YUV
Субдискретизация насыщенности : 4:2:0
Битовая глубина : 8 бит
Тип развёртки : Прогрессивная
Бит/(Пиксели*Кадры) : 0.251
Размер потока : 658 Мбайт (88%)
Библиотека кодирования : x264 core 119 r2106 07efeb4
Настройки программы : cabac=1 / ref=11 / deblock=1:0:0 / analyse=0x3:0x113 / me=umh / subme=10 / psy=1 / psy_rd=1.00:0.20 / mixed_ref=1 / me_range=32 / chroma_me=1 / trellis=2 / 8x8dct=1 / cqm=0 / deadzone=21,11 / fast_pskip=0 / chroma_qp_offset=-3 / threads=6 / sliced_threads=0 / nr=0 / decimate=0 / interlaced=0 / bluray_compat=0 / constrained_intra=0 / bframes=8 / b_pyramid=2 / b_adapt=2 / b_bias=0 / direct=3 / weightb=1 / open_gop=0 / weightp=2 / keyint=250 / keyint_min=25 / scenecut=40 / intra_refresh=0 / rc_lookahead=60 / rc=2pass / mbtree=1 / bitrate=1807 / ratetol=1.0 / qcomp=0.60 / qpmin=0 / qpmax=69 / qpstep=4 / cplxblur=20.0 / qblur=0.5 / ip_ratio=1.40 / aq=1:1.00
Default : Да
Forced : Нет

Аудио
Идентификатор : 2
Формат : AC-3
Формат/Информация : Audio Coding 3
Расширение режима : CM (complete main)
Параметр Endianness формата : Big
Идентификатор кодека : A_AC3
Продолжительность : 52 м.
Вид битрейта : Постоянный
Битрейт : 192 Кбит/сек
Каналы : 2 канала
Расположение каналов : Front: L R
Частота : 48,0 КГц
Битовая глубина : 16 бит
Метод сжатия : С потерями
Размер потока : 71,4 Мбайт (10%)
Default : Да
Forced : Нет










   Похожие торренты   Торрент   Размер 
В этой теме нет новых непрочитанных сообщений. Без права на ошибку [01-04 из 04] (2010) DVD9 от Youtracker | R5 | лицензия

1 | 37

7.75 ГБ

В этой теме нет новых непрочитанных сообщений. Без права на ошибку: Операция "Город" [01-04 из 04] (2010) DVDRip-AVC от Youtracker

184 | 8

2.14 ГБ

В этой теме нет новых непрочитанных сообщений. Сапёры / Без права на ошибку (2007) DVDRip от Files-x

83 | 9

1.37 ГБ

В этой теме нет новых непрочитанных сообщений. Без права на ошибку [01-02 из 02] (2016) HDTVRip-AVC от New-Team

62 | 15

2.15 ГБ

В этой теме нет новых непрочитанных сообщений. Без права на ошибку [01-02 из 02] (2016) HDTVRip-AVC от Files-x

95 | 25

2.89 ГБ

В этой теме нет новых непрочитанных сообщений. Без права на ошибку [01-02 из 02] (2016) HDTVRip от GeneralFilm

89 | 23

1.45 ГБ

В этой теме нет новых непрочитанных сообщений. Без права на ошибку [01-02 из 02] (2016) HDTVRip от Files-x

482 | 65

2.73 ГБ




Вы не можете начинать темы
Вы не можете отвечать на сообщения
Вы не можете редактировать свои сообщения
Вы не можете удалять свои сообщения
Вы не можете добавлять вложения

Перейти:  
Для Мосгорсуда, Роскомнадзора и рекламодателей: mosgorsud-torrent[собачка]yandex.ru
 Вход
ppkBB3cker v.2 © 2008-2014 @ PPK
[ Time : 0.040s | 14 Queries | GZIP : On ]

Торрент трекер RUTOR.IN, Не можете зайти на rutor.org? Какой новый адрес рутор? Какое зеркало рутор? Не работает rutor.org и зеркала? Тогда наш торрент специально для вас. Rutor.in неофициальное зеркало rutor. В случае если у Вас заблокирован rutor или вдруг Вы не можете на него зайти, то Вы без труда сможете скачать бесплатно и без рекламы последние новинки кино, игр, сериалов и прочего у нас, на Rutor.in. Не нужно использовать прокси, чтобы зайти на рутор, достаточно воспользоваться нашим ресурсом. Все новые фильмы, игры, сериалы, книги и музыка за 2013 и 2014 годы через торрент бесплатно. Скачивайте фильмы в хорошем качестве, игры для пк, xbox, playstation без регистрации. У нас вы найдете новые Зарубежные сериалы и Русские сериалы 2013, 2014, 2015 годов. Оставайтесь с нами, качайте любимые фильмы, игры, сериалы, книги и музыку.