img image001 image001 image001 image001 image001 image001 image001 image001 image001 image001 image001 image001 image001 image001 image001

Planets Sun Sun Sun
Статистика раздачи
Автор: Снежана | Размер: 12.14 ГБ | Добавлен: 25 июл 2013
Раздают: 39    Качают: 45
Скачать торрент
Скачать торрент
Описание торрента

СообщениеДобавлено: 25 июл 2013 

Чародей. Чародей 2: Страна Великого Дракона / Spellbinder. Spellbinder-2: Land of the Dragon Lord


Чародей / Spellbinder



Год выпуска: 1995
Страна: Австралия, Польша
Жанр: фантастика, фэнтези, приключения, семейный
Продолжительность: 26 x 0:25
Перевод: Профессиональный (многоголосый, закадровый) (5 Канал)
Режиссер: Ноэль Прайс / Noel Price
В ролях: Сбых Трофимюк, Гося Пётровска, Браин Руни, Мишела Нунан, Херер Митчел, Эндрю МакФарлейн, Кристоф Кумор, Рафал Звеш



Описание:
Группа тинейджеров отправляется в лагерь, чтобы наблюдать солнечное затмение. Учитель показывает им пещеру, в которой по ночам появляются странные вспышки света. Ночью Пол и Алекс пытаются напугать одноклассницу Катрину и её подругу, протянув возле линии электропередач стальной провод, по которому Пол, как призрак, должен спуститься в простыне.
В результате короткого замыкания образовывается портал и Пол случайно попадает в параллельный мир, где правит группа людей, именуемых Чародеями. Чародеи обладают научными знаниями, которые они выдают необразованным крестьянам за волшебство. Чтобы снова попасть домой, Полу придётся доказать что он из другого мира и преодолеть множество трудностей, пройти которые ему поможет Риана — девочка из мира Чародеев.



Качество: TVRip
Формат: AVI
Видео кодек: XviD
Аудио кодек: MP3
Видео: 512x384 (1.33:1), 25 fps, XviD Final 1.1 (build 41) 846 kbps avg, 0.17 bit/pixel
Аудио Rus: 48 kHz, MPEG Layer 3, 2 ch, 192.00 kbps avg
Аудио Eng: 48 kHz, MPEG Layer 3, 2 ch, 128.00 kbps avg



Список серий 1 сезона
01. Большой взрыв / The Big Bang
02. Где я? / Where Am I?
03. В поисках пути домой / Finding The Way Home
04. Это не магия, это наука / It Isn`t Magic, It`s Science
05. Тайны / Secrets
06. Покажи мне свой мир / Show Me Your World
07. Секрет пороха / The Gunpowder Plot
08. Секреты чародеев / Secrets Of The Spellbinders
09. Лабиринт / The Labyrinth
10. Отчаянный меры / Desperate Measures
11. Центр власти / The Centre Of Power
12. Чародей Джек / Spellbinder Jack
13. Заключительная проблема / The Final Challenge
14. Потерявшийся и найденный / Lost And Found
15. Гостеприимство / Hospitality
16. Взлом / Breakout
17. Троянские ириски / The Trojan Toffee Trolley
18. Беги! / Run!
19. Встреча / Reunions
20. Вторжение инопланетян / Alien Invasion
21. Охота на Ашку / The Hunt For Ashka
22. Клоунада / Clowning Around
23. Модиифицированные доспехи / The High-Tech Power Suit
24. Чародей в доме / A Spellbinder In The House
25. Завтрак чемпионов / Breakfast Of Champions
26. Полёт / Flight








Год выпуска: 1997
Страна: Австралия, Польша, Китай
Жанр: фантастика, фэнтези, приключения, семейный
Продолжительность: 26 x 0:25
Перевод: Профессиональный (многоголосый, закадровый)
Режиссер: Ноэль Прайс / Noel Price
В ролях: Lauren Hewett, Ryan Kwanten, Leonard Fung, Anthony Wong, Heather Mitchell, Me Yang, Lenore Smith, Peter O'Brien, Hu Xin, Gui Jeilan



Описание:
Кэти Морган — талантливая и одарённая богатым воображением 14-летняя девочка проводила летние каникулы вместе со своими родителями, Вики и Карлом, и братом Джошем отдыхая на природе вдали от крупных городов и шумных автомагистралей.
Однажды, гуляя по окрестностям, Кэти нашла таинственный корабль, изобретённый Меком — учёным из параллельного мира, называемого Страной Великого Дракона. Случайно девушка перемещается в мир чародеев, где в заточении находится чародейка Ашка — безжалостный и властолюбивый воин — обманом завлекшая Кэти в Страну Великого Дракона — мир будущего, где компьютер был изобретен четыреста лет назад и над всеми господствует избалованный десятилетний мальчишка-император.
Когда Ашка предпринимает попытку завладеть этим миром, Кэти и Мек совершают путешествие во времени, пересекая при этом границы множества опасных, но увлекательных параллельных миров, чтобы спасти семью Кэти и империю Дракона…



Качество: TVRip
Формат: AVI
Видео кодек: XviD
Аудио кодек: MP3
Видео: 512x384 (1.33:1), 25 fps, XviD Final 1.1 (build 41) 1220 kbps avg, 0.25 bit/pixel
Аудио Rus: 48 kHz, MPEG Layer 3, 2 ch, 192.00 kbps avg
Аудио Eng: 48 kHz, MPEG Layer 3, 2 ch, 128.00 kbps avg



Список серий 2 сезона
01. Транс-мерная бамбуковая лодка / The Trans-Dimensional Bamboo Boat
02. Ашка / Ashka
03. Лорд дракон / The Dragon Lord
04. Оракул / Oracle
05. Затерялся в мире монстров / Marooned in a World of Monsters
06. Атака тридцать-метров воины / Attack of the Thirty-Metre Warrior
07. Джош, дух воды / Josh, the Water Spirit
08. Солнце становится звездой / Sun Becomes a Star
09. Назначеный день / Designation Day
10. Оракул мертв / The Oracle is Dead
11. Только один ребенок в мире / The Only Child in the World
12. Девочки на продажу / Girl for Sale
13. Для жизни навсегда / To Live Forever
14. Варвары у ворот / Barbarians at the Gate
15. Лучшие планы ... / The Best-Laid Plans...
16. Кладбище машин / Graveyard of Machines
17. Охотник и призраки / The Hunter and the Haunting
18. Стоп Молох! / Stop the Moloch!
19. Побег из дворца / Escape from the Palace
20. Кэти встречает ... Сама / Kathy Meets... Herself
21. Сомнение ли крест / Doublecross
22. О Трейл / On the Trail
23. Два Джошуа / The Two Joshes
24. Кто есть кто? / Who's Who?
25. Исчезновение закона / The Disappearing Act
26. Свадебный сюрприз / A Wedding Surprise




1 Сезон Format : AVI
Format/Info : Audio Video Interleave
File size : 212 MiB
Duration : 25mn 5s
Overall bit rate : 1 182 Kbps
Writing application : VirtualDubModRus 1.5.10.2 (build 2542/release)
Writing library : VirtualDubMod build 2542/release
Video
ID : 0
Format : MPEG-4 Visual
Format profile : Advanced Simple@L5
Format settings, BVOP : Yes
Format settings, QPel : No
Format settings, GMC : No warppoints
Format settings, Matrix : Custom
Codec ID : XVID
Codec ID/Hint : XviD
Duration : 25mn 5s
Bit rate : 848 Kbps
Width : 512 pixels
Height : 384 pixels
Display aspect ratio : 4:3
Frame rate : 25.000 fps
Resolution : 8 bits
Colorimetry : 4:2:0
Scan type : Progressive
Bits/(Pixel*Frame) : 0.172
Stream size : 152 MiB (72%)
Writing library : XviD 1.1.0 (UTC 2005-11-22)
Audio #1
ID : 1
Format : MPEG Audio
Format version : Version 1
Format profile : Layer 3
Format_Settings_Mode : Joint stereo
Format_Settings_ModeExtension : MS Stereo
Codec ID : 55
Codec ID/Hint : MP3
Duration : 25mn 5s
Bit rate mode : Constant
Bit rate : 192 Kbps
Channel(s) : 2 channels
Sampling rate : 48.0 KHz
Stream size : 34.5 MiB (16%)
Alignment : Aligned on interleaves
Interleave, duration : 40 ms (1.00 video frame)
Interleave, preload duration : 504 ms
Writing library : LAME3.90.3
Audio #2
ID : 2
Format : MPEG Audio
Format version : Version 1
Format profile : Layer 3
Format_Settings_Mode : Joint stereo
Format_Settings_ModeExtension : MS Stereo
Codec ID : 55
Codec ID/Hint : MP3
Duration : 25mn 5s
Bit rate mode : Constant
Bit rate : 128 Kbps
Channel(s) : 2 channels
Sampling rate : 48.0 KHz
Stream size : 23.0 MiB (11%)
Alignment : Aligned on interleaves
Interleave, duration : 40 ms (1.00 video frame)
Interleave, preload duration : 504 ms
2 Сезон Format : AVI
Format/Info : Audio Video Interleave
File size : 266 MiB
Duration : 23mn 56s
Overall bit rate : 1 556 Kbps
Writing application : VirtualDubModRus 1.5.10.2 (build 2542/release)
Writing library : VirtualDubMod build 2542/release
Video
ID : 0
Format : MPEG-4 Visual
Format profile : Advanced Simple@L5
Format settings, BVOP : Yes
Format settings, QPel : No
Format settings, GMC : No warppoints
Format settings, Matrix : Default (H.263)
Codec ID : XVID
Codec ID/Hint : XviD
Duration : 23mn 56s
Bit rate : 1 222 Kbps
Width : 512 pixels
Height : 384 pixels
Display aspect ratio : 4:3
Frame rate : 25.000 fps
Resolution : 8 bits
Colorimetry : 4:2:0
Scan type : Progressive
Bits/(Pixel*Frame) : 0.249
Stream size : 209 MiB (78%)
Writing library : XviD 1.1.0 (UTC 2005-11-22)
Audio #1
ID : 1
Format : MPEG Audio
Format version : Version 1
Format profile : Layer 3
Format_Settings_Mode : Joint stereo
Format_Settings_ModeExtension : MS Stereo
Codec ID : 55
Codec ID/Hint : MP3
Duration : 23mn 55s
Bit rate mode : Constant
Bit rate : 192 Kbps
Channel(s) : 2 channels
Sampling rate : 48.0 KHz
Stream size : 32.9 MiB (12%)
Alignment : Aligned on interleaves
Interleave, duration : 40 ms (1.00 video frame)
Interleave, preload duration : 504 ms
Writing library : LAME3.96
Audio #2
ID : 2
Format : MPEG Audio
Format version : Version 1
Format profile : Layer 3
Codec ID : 55
Codec ID/Hint : MP3
Duration : 23mn 56s
Bit rate mode : Constant
Bit rate : 128 Kbps
Channel(s) : 2 channels
Sampling rate : 48.0 KHz
Stream size : 21.9 MiB (8%)
Alignment : Split accross interleaves
Interleave, duration : 40 ms (1.00 video frame)
Interleave, preload duration : 500 ms



   Похожие торренты   Торрент   Размер 
В этой теме нет новых непрочитанных сообщений. Чародей 2: Страна Великого Дракона / Spellbinder: Land of the Dragon Lord [S02] (1997) DVDRip-AVC | P

28 | 13

12.45 ГБ

В этой теме нет новых непрочитанных сообщений. Чародей Страна Великого Дракона / Spellbinder Land of the Dragon Lord [02x01-26] (1997) DSRip

5 | 23

4.44 ГБ

В этой теме нет новых непрочитанных сообщений. Чародей / Spellbinder [S01] (1995) DVDRip-AVC

80 | 57

14.55 ГБ

В этой теме нет новых непрочитанных сообщений. Чародеи / Spellbinder [01x01-26] (1995) VHSRip

7 | 20

7.24 ГБ

В этой теме нет новых непрочитанных сообщений. Служители дьявола / Spellbinder (1988) HDTVRip | Р2

224 | 131

1.45 ГБ

В этой теме нет новых непрочитанных сообщений. Служители дьявола / Spellbinder (1988) IPTVRip от Pshichko66 | P

79 | 7

1.45 ГБ

В этой теме нет новых непрочитанных сообщений. Служители дьявола / Spellbinder (1988) BDRemux 1080p | Р2

9 | 100

18.43 ГБ




Вы не можете начинать темы
Вы не можете отвечать на сообщения
Вы не можете редактировать свои сообщения
Вы не можете удалять свои сообщения
Вы не можете добавлять вложения

Перейти:  
Для Мосгорсуда, Роскомнадзора и рекламодателей: mosgorsud-torrent[собачка]yandex.ru
 Вход
ppkBB3cker v.2 © 2008-2014 @ PPK
[ Time : 1.752s | 17 Queries | GZIP : Off ]

Торрент трекер RUTOR.IN, Не можете зайти на rutor.org? Какой новый адрес рутор? Какое зеркало рутор? Не работает rutor.org и зеркала? Тогда наш торрент специально для вас. Rutor.in неофициальное зеркало rutor. В случае если у Вас заблокирован rutor или вдруг Вы не можете на него зайти, то Вы без труда сможете скачать бесплатно и без рекламы последние новинки кино, игр, сериалов и прочего у нас, на Rutor.in. Не нужно использовать прокси, чтобы зайти на рутор, достаточно воспользоваться нашим ресурсом. Все новые фильмы, игры, сериалы, книги и музыка за 2013 и 2014 годы через торрент бесплатно. Скачивайте фильмы в хорошем качестве, игры для пк, xbox, playstation без регистрации. У нас вы найдете новые Зарубежные сериалы и Русские сериалы 2013, 2014, 2015 годов. Оставайтесь с нами, качайте любимые фильмы, игры, сериалы, книги и музыку.