img image001 image001 image001 image001 image001 image001 image001 image001 image001 image001 image001 image001 image001 image001 image001

Planets Sun Sun Sun
Статистика раздачи
Автор: Снежана | Размер: 3.41 ГБ | Добавлен: 25 июл 2013
Раздают: 0    Качают: 1
Скачать торрент
Скачать торрент
Описание торрента

СообщениеДобавлено: 25 июл 2013 

#77

Информация о фильме
Название: Шоу 70−х
Оригинальное название: That '70s Show
Год выхода: 1998
Жанр: мелодрама, комедия
Режиссер: Дэвид Трейнер / David Trainer
В ролях: Мила Кунис, Дэнни Мастерсон, Лаура Препон, Уилмер Вальдеррама, Дебра Джо Рапп, Кертвуд Смит, Дон Старк, Эштон Катчер, Тофер Грейс, Таня Робертс, Томми Чонг, Лиза Робин Келли, Джош Мейерс, Мо Гаффни, Эллисон Мунн, Тим Рейд, Шеннон Элизабет

О фильме:
«Шоу 70-х» рассказывает о жизни нескольких 17 летних подростков живущих в Поинт Плейс, Висконсин.

Эрик Форман — обычный подросток, хороший парень, невысокий и немного неуклюжий. Он уверен в себе, остроумен и невозмутим. Его отец Ред — бывший морпех, ветеран Второй мировой и Корейской войн, воспитывает его довольно строго. Отравляет Эрику жизнь и старшая сестра Лори, которой нравится мучить брата и манипулировать родителями. Мать Эрика и Лори Китти-бойкая женщина в возрасте и любительница выпить, но при этом чрезмерно заботится о детях.

По соседству с ними живет девушка, Донна Пинсиотти, и ее родители, Боб и Мидж. Остальные участники тусовки: Фез, иностранный студент по обмену, который пытается понять Американскую культуру, Джеки Бургхат, ее бывший и настоящий парень, Майкл Келсо, и Стивен Хайд, конспиролог который верит что Ксерокс захватит весь мир.

Они обычно проводят время в подвале дома Эрика, думая о своей жизни, родителях и будущем, но им удается постоянно попадать в забавные ситуации и неудачи, живя своей нелегкой жизнью подростков.


Страна: США
Продолжительность: ~22 минуты серия
Перевод: Любительский (многоголосый закадровый) [Несмертельное оружие] / Оригинал (английский)

Файл
Кодек: XviD / MP3
Качество: DVDRip
Видео: XviD, 720x400 (1.80:1), 23.977 fps, ~1799 kbps avg, 0.26 bit/pixel
Звук:
Аудио #1: 48 kHz, AC3 Dolby Digital, 2/0 (L,R) ch, ~192.00 kbps avg | Russian | MVO
Аудио #2: 48 kHz, AC3 Dolby Digital, 2/0 (L,R) ch, ~192.00 kbps avg | English | Original
Cубтитры: русские (форсированные) только для 9-го эпизода
General
Complete name : Oh.uzh.eti.70-e.S02E01.Dual.WEB-DLRip.[Nesmertelnoe.oruzhie].avi
Format : AVI
Format/Info : Audio Video Interleave
File size : 349 MiB
Duration : 22mn 12s
Overall bit rate : 2 199 Kbps
Movie name : Ох уж эти 70-е / Шоу 70-х / That '70s Show / Сезон: 2 / Эпизод: 01 - Гаражная распродажа
Director : ANTipiGo
Genre : Comedy
Writing application : VirtualDubMod 1.5.10.2 (build 2540/release)
Original source form/Name : TV-Serie
Copyright : Творческое объединение "Несмертельное оружие"

Video
ID : 0
Format : MPEG-4 Visual
Format profile : Advanced Simple@L5
Format settings, BVOP : 1
Format settings, QPel : No
Format settings, GMC : No warppoints
Format settings, Matrix : Default (MPEG)
Codec ID : XVID
Codec ID/Hint : XviD
Duration : 22mn 12s
Bit rate : 1 800 Kbps
Width : 720 pixels
Height : 400 pixels
Display aspect ratio : 16:9
Frame rate : 23.976 fps
Color space : YUV
Chroma subsampling : 4:2:0
Bit depth : 8 bits
Scan type : Progressive
Compression mode : Lossy
Bits/(Pixel*Frame) : 0.261
Stream size : 286 MiB (82%)
Writing library : XviD 64

Audio #1
ID : 1
Format : AC-3
Format/Info : Audio Coding 3
Mode extension : CM (complete main)
Codec ID : 2000
Duration : 22mn 12s
Bit rate mode : Constant
Bit rate : 192 Kbps
Channel(s) : 2 channels
Channel positions : Front: L R
Sampling rate : 48.0 KHz
Bit depth : 16 bits
Compression mode : Lossy
Stream size : 30.5 MiB (9%)
Alignment : Split accross interleaves
Interleave, duration : 42 ms (1.00 video frame)
Interleave, preload duration : 500 ms
Title : [RUS] MVO (Несмертельное оружие)

Audio #2
ID : 2
Format : AC-3
Format/Info : Audio Coding 3
Mode extension : CM (complete main)
Codec ID : 2000
Duration : 22mn 12s
Bit rate mode : Constant
Bit rate : 192 Kbps
Channel(s) : 2 channels
Channel positions : Front: L R
Sampling rate : 48.0 KHz
Bit depth : 16 bits
Compression mode : Lossy
Stream size : 30.5 MiB (9%)
Alignment : Split accross interleaves
Interleave, duration : 42 ms (1.00 video frame)
Interleave, preload duration : 500 ms
Title : [ENG] Original



   Похожие торренты   Торрент   Размер 
В этой теме нет новых непрочитанных сообщений. Rocky Horror Interactive Show (1999) PC | RePack от Pilotus

0 | 2

260.59 МБ

В этой теме нет новых непрочитанных сообщений. Обычное Шоу / Обычный Мультик / Regular Show [01-02x01-40] (2010) WEB-DLRip 720p

152 | 24

10.46 ГБ

В этой теме нет новых непрочитанных сообщений. Вуди Вудпекер в новом шоу / The New Woody Woodpecker Show (1999) DVDRip от Youtracker | P

62 | 19

1.45 ГБ

В этой теме нет новых непрочитанных сообщений. Beardyman - Live in the Underbelly, The Full show (2009) WEBRip

0 | 2

893.79 МБ

В этой теме нет новых непрочитанных сообщений. Mount Show - Все выпуски [01-57] (2015-2016) WEBRip 720p

11 | 3

8.75 ГБ

В этой теме нет новых непрочитанных сообщений. Mount Show - Все выпуски [01-60] (2015-2016) WEBRip 720p

0 | 3

9.18 ГБ

В этой теме нет новых непрочитанных сообщений. Mount Show - Все выпуски [01-61] (2015-2016) WEBRip 720p

2 | 4

9.33 ГБ




Вы не можете начинать темы
Вы не можете отвечать на сообщения
Вы не можете редактировать свои сообщения
Вы не можете удалять свои сообщения
Вы не можете добавлять вложения

Перейти:  
Для Мосгорсуда, Роскомнадзора и рекламодателей: mosgorsud-torrent[собачка]yandex.ru
 Вход
ppkBB3cker v.2 © 2008-2014 @ PPK
[ Time : 0.054s | 14 Queries | GZIP : Off ]

Торрент трекер RUTOR.IN, Не можете зайти на rutor.org? Какой новый адрес рутор? Какое зеркало рутор? Не работает rutor.org и зеркала? Тогда наш торрент специально для вас. Rutor.in неофициальное зеркало rutor. В случае если у Вас заблокирован rutor или вдруг Вы не можете на него зайти, то Вы без труда сможете скачать бесплатно и без рекламы последние новинки кино, игр, сериалов и прочего у нас, на Rutor.in. Не нужно использовать прокси, чтобы зайти на рутор, достаточно воспользоваться нашим ресурсом. Все новые фильмы, игры, сериалы, книги и музыка за 2013 и 2014 годы через торрент бесплатно. Скачивайте фильмы в хорошем качестве, игры для пк, xbox, playstation без регистрации. У нас вы найдете новые Зарубежные сериалы и Русские сериалы 2013, 2014, 2015 годов. Оставайтесь с нами, качайте любимые фильмы, игры, сериалы, книги и музыку.