img image001 image001 image001 image001 image001 image001 image001 image001 image001 image001 image001 image001 image001 image001 image001

Planets Sun Sun Sun
Статистика раздачи
Автор: Снежана | Размер: 4.36 ГБ | Добавлен: 25 июл 2013
Раздают: 18    Качают: 7
Скачать торрент
Скачать торрент
Описание торрента

СообщениеДобавлено: 25 июл 2013 

#77

Страна: Россия
Год выпуска: 2012
Производство: KoBura Film
Жанр: триллер, драма, приключения
Продолжительность: 8 серий х ~43 минуты = 05:48:33
Режиссёр: Карен Оганесян

В ролях: Александр Домогаров, Андрей Смоляков, Юлия Пересильд, Даниил Страхов, Александр Новин, Наталья Ноздрина, Юрий Цурило, Максим Матвеев, Иван Краско, Полина Стефанович...

Описание: Главный герой картины Харальд ищет источник вечной молодости. Корнями эта легенда уходит во времена Второй мировой войны, когда на территории концлагеря «Зоннентау» врачи Третьего рейха проводили опыты над советскими военнопленными, пытаясь понять, как сделать человека бессмертным.
Помогает Харальду персонаж по имени Шульц, который зарабатывает на жизнь тем, что охотится за таинственными древними артефактами. Сдерживающей и отрезвляющей силой в этом многоуровневом действии является майор полиции Волочаев.





Исходник: 2хDVD9 R5
Качество: DVDRip-AVC
Формат: MKV

Видео: 720x428@770x428 (16:9), 25 fps, H264 ~ 1601 kbps avg, 0.208 bit/pixel

Раздача от:

Аудио: 48 kHz, AC3, 2 ch, 192.00 kbps

Общее
Полное имя : Zonnentau.2012.O.DVDRip-AVC_[Youtracker]_by_avproh01.mkv
Формат : Matroska
Версия формата : Version 2
Размер файла : 567 Мбайт
Продолжительность : 44 м.
Общий поток : 1794 Кбит/сек
Дата кодирования : UTC 2012-08-01 22:58:51
Программа кодирования : mkvmerge v5.0.1 ('Es ist Sommer') built on Nov 6 2011 16:23:40
Библиотека кодирования : libebml v1.2.2 + libmatroska v1.3.0

Видео
Идентификатор : 1
Формат : AVC
Формат/Информация : Advanced Video Codec
Профиль формата : High@L4.1
Параметр CABAC формата : Да
Параметр ReFrames формата : 11 кадров
Идентификатор кодека : V_MPEG4/ISO/AVC
Продолжительность : 44 м.
Битрейт : 1601 Кбит/сек
Ширина : 720 пикселей
Высота : 428 пикселей
Соотношение сторон : 16:9
Соотношение сторон в оригинале : 16:9
Частота кадров : 25,000 кадров/сек
Цветовое пространство : YUV
Субдискретизация насыщенности : 4:2:0
Битовая глубина : 8 бит
Тип развёртки : Прогрессивная
Бит/(Пиксели*Кадры) : 0.208
Размер потока : 495 Мбайт (87%)
Библиотека кодирования : x264 core 119 r2106 07efeb4
Настройки программы : cabac=1 / ref=11 / deblock=1:0:0 / analyse=0x3:0x113 / me=umh / subme=10 / psy=1 / psy_rd=1.00:0.20 / mixed_ref=1 / me_range=32 / chroma_me=1 / trellis=2 / 8x8dct=1 / cqm=0 / deadzone=21,11 / fast_pskip=0 / chroma_qp_offset=-3 / threads=6 / sliced_threads=0 / nr=0 / decimate=0 / interlaced=0 / bluray_compat=0 / constrained_intra=0 / bframes=8 / b_pyramid=2 / b_adapt=2 / b_bias=0 / direct=3 / weightb=1 / open_gop=0 / weightp=2 / keyint=250 / keyint_min=25 / scenecut=40 / intra_refresh=0 / rc_lookahead=60 / rc=2pass / mbtree=1 / bitrate=1601 / ratetol=1.0 / qcomp=0.60 / qpmin=0 / qpmax=69 / qpstep=4 / cplxblur=20.0 / qblur=0.5 / ip_ratio=1.40 / aq=1:1.00
Default : Да
Forced : Нет

Аудио
Идентификатор : 2
Формат : AC-3
Формат/Информация : Audio Coding 3
Расширение режима : CM (complete main)
Параметр Endianness формата : Big
Идентификатор кодека : A_AC3
Продолжительность : 44 м.
Вид битрейта : Постоянный
Битрейт : 192 Кбит/сек
Каналы : 2 канала
Расположение каналов : Front: L R
Частота : 48,0 КГц
Битовая глубина : 16 бит
Метод сжатия : С потерями
Размер потока : 60,6 Мбайт (11%)
Default : Да
Forced : Нет






   Похожие торренты   Торрент   Размер 
В этой теме нет новых непрочитанных сообщений. Зоннентау [01-08 из 08] (2012) DVDRip от avproh

35 | 10

4.37 ГБ

В этой теме нет новых непрочитанных сообщений. Зоннентау [01-08 из 08] (2012) DVB

2 | 2

13.76 ГБ

В этой теме нет новых непрочитанных сообщений. Татьяна и Сергей Никитины - Концерт в Доме музыки 27 февраля 2010 год (2010) DVDRip от Youtracker

8 | 3

745.09 МБ

В этой теме нет новых непрочитанных сообщений. Татьяна и Сергей Никитины - Концерт в Доме музыки 27 февраля 2010 год (2010) DVDRip от Youtracker

14 | 4

1.46 ГБ

В этой теме нет новых непрочитанных сообщений. Слон (2010) DVDRip-AVC от Youtracker

5 | 3

1.46 ГБ

В этой теме нет новых непрочитанных сообщений. Мастер (2010) DVDRip от Youtracker

18 | 3

1.46 ГБ

В этой теме нет новых непрочитанных сообщений. Искупление (2010) DVDRip от Youtracker

18 | 7

1.45 ГБ




Вы не можете начинать темы
Вы не можете отвечать на сообщения
Вы не можете редактировать свои сообщения
Вы не можете удалять свои сообщения
Вы не можете добавлять вложения

Перейти:  
Для Мосгорсуда, Роскомнадзора и рекламодателей: mosgorsud-torrent[собачка]yandex.ru
 Вход
ppkBB3cker v.2 © 2008-2014 @ PPK
[ Time : 0.044s | 14 Queries | GZIP : Off ]

Торрент трекер RUTOR.IN, Не можете зайти на rutor.org? Какой новый адрес рутор? Какое зеркало рутор? Не работает rutor.org и зеркала? Тогда наш торрент специально для вас. Rutor.in неофициальное зеркало rutor. В случае если у Вас заблокирован rutor или вдруг Вы не можете на него зайти, то Вы без труда сможете скачать бесплатно и без рекламы последние новинки кино, игр, сериалов и прочего у нас, на Rutor.in. Не нужно использовать прокси, чтобы зайти на рутор, достаточно воспользоваться нашим ресурсом. Все новые фильмы, игры, сериалы, книги и музыка за 2013 и 2014 годы через торрент бесплатно. Скачивайте фильмы в хорошем качестве, игры для пк, xbox, playstation без регистрации. У нас вы найдете новые Зарубежные сериалы и Русские сериалы 2013, 2014, 2015 годов. Оставайтесь с нами, качайте любимые фильмы, игры, сериалы, книги и музыку.