img image001 image001 image001 image001 image001 image001 image001 image001 image001 image001 image001 image001 image001 image001 image001

Planets Sun Sun Sun
Статистика раздачи
Автор: Снежана | Размер: 4.29 ГБ | Добавлен: 25 июл 2013
Раздают: 1096    Качают: 269
Скачать торрент
Скачать торрент
Описание торрента

СообщениеДобавлено: 25 июл 2013 

#77

Информация о фильме
Название: Бригада
Год выхода: 2002
Жанр: драма, криминал
Режиссер: Алексей Сидоров
В ролях: Сергей Безруков, Владимир Вдовиченков, Дмитрий Дюжев, Павел Майков, Андрей Панин, Екатерина Гусева, Леонид Куравлев, Николай Еременко мл., Александр Белявский, Валентина Теличкина, Алексей Кравченко, Дарья Повереннова, Ян Цапник, Светлана Чуйкина, Алексей Алексеев, Мария Аронова

О фильме:
Это история четырех друзей детства, обычных московских парней, Саши Белого, Космоса, Пчелы и Фила, выросших в одном дворе. Друзья решили немного подзаработать, но незапланированное убийство вмиг перемешало все задуманное, поставив на кон их жизни.

Ставка слишком высока, но отступать некуда. Теперь парни прокладывают себе дорогу в криминальном мире и волею судеб превращаются в одну из самых сплоченных и влиятельных группировок…




Страна: Россия
Студия: Аватар Фильм
Продолжительность: ~ 00:50:00 х 15
Перевод: Оригинал

Файл
Кодек: XviD
Качество: DVDRip
Видео: 560x336 (1.67:1), 25 fps, XviD build 65 ~665 kbps avg, 0.14 bit/pixel
Звук: 48 kHz, MPEG Layer 3, 2 ch, ~128.00 kbps avg
Общее
Полное имя : D:VideoBrigada.2002.DVDRipbrigada_e01.2002.dvdrip.avi
Формат : AVI
Формат/Информация : Audio Video Interleave
Размер файла : 293 Мбайт
Продолжительность : 51 м.
Общий поток : 803 Кбит/сек
Название фильма : brigada_e1.2002.dvdrip
Программа кодирования : VirtualDubMod 1.5.10.3

Видео
Идентификатор : 0
Формат : MPEG-4 Visual
Профиль формата : Advanced Simple@L5
Параметр BVOP формата : 1
Параметр QPel формата : Нет
Параметр GMC формата : Без точки перехода
Параметр матрицы формата : Выборочная
Идентификатор кодека : XVID
Идентификатор кодека/Подсказка : XviD
Продолжительность : 51 м.
Битрейт : 666 Кбит/сек
Ширина : 560 пикселей
Высота : 336 пикселей
Соотношение сторон : 1,667
Частота кадров : 25,000 кадров/сек
Цветовое пространство : YUV
Субдискретизация насыщенности : 4:2:0
Битовая глубина : 8 бит
Тип развёртки : Прогрессивная
Метод сжатия : С потерями
Бит/(Пиксели*Кадры) : 0.141
Размер потока : 243 Мбайт (83%)
Библиотека кодирования : XviD 65

Аудио
Идентификатор : 1
Формат : MPEG Audio
Версия формата : Version 1
Профиль формата : Layer 3
Идентификатор кодека : 55
Идентификатор кодека/Подсказка : MP3
Продолжительность : 51 м.
Вид битрейта : Постоянный
Битрейт : 128 Кбит/сек
Каналы : 2 канала
Частота : 48,0 КГц
Метод сжатия : С потерями
Размер потока : 46,7 Мбайт (16%)
Выравнивание : Соединение по промежуткам
Продолжительность промежутка : 40 мс. (1,00 видеокадр)
Время предзагрузки промежутка : 504 мс.
Библиотека кодирования : LAME3.98r
Настройки программы : -m s -V 4 -q 0 -lowpass 17 -b 128










Релиз от:



   Похожие торренты   Торрент   Размер 
В этой теме нет новых непрочитанных сообщений. Бригада [01-15 из 15] (2002) DVDRip-AVC

416 | 151

13.96 ГБ

В этой теме нет новых непрочитанных сообщений. Бригада [01-15 из 15] (2002) DVDRip от blackmambo

400 | 109

13.13 ГБ

В этой теме нет новых непрочитанных сообщений. Бригада [01-15 из 15] (2002) DVDRip от Scarabey

2286 | 390

10.86 ГБ

В этой теме нет новых непрочитанных сообщений. Бригада (1-15 из 15 серий) (2002) DVDRip | 60 fps

466 | 231

56.31 ГБ

В этой теме нет новых непрочитанных сообщений. Бригада (15 серий) (2002) DVDRip

1127 | 163

6.61 ГБ

В этой теме нет новых непрочитанных сообщений. Бригада по-французски / La Mentale (2002) DVDRip

24 | 4

690.47 МБ

В этой теме нет новых непрочитанных сообщений. Бригада [01-15] (2002) DVD9

68 | 15

33.37 ГБ




Вы не можете начинать темы
Вы не можете отвечать на сообщения
Вы не можете редактировать свои сообщения
Вы не можете удалять свои сообщения
Вы не можете добавлять вложения

Перейти:  
Для Мосгорсуда, Роскомнадзора и рекламодателей: mosgorsud-torrent[собачка]yandex.ru
 Вход
ppkBB3cker v.2 © 2008-2014 @ PPK
[ Time : 0.067s | 15 Queries | GZIP : Off ]
CGP output time : 0.984s | 5 Queries | GZIP : Off

Торрент трекер RUTOR.IN, Не можете зайти на rutor.org? Какой новый адрес рутор? Какое зеркало рутор? Не работает rutor.org и зеркала? Тогда наш торрент специально для вас. Rutor.in неофициальное зеркало rutor. В случае если у Вас заблокирован rutor или вдруг Вы не можете на него зайти, то Вы без труда сможете скачать бесплатно и без рекламы последние новинки кино, игр, сериалов и прочего у нас, на Rutor.in. Не нужно использовать прокси, чтобы зайти на рутор, достаточно воспользоваться нашим ресурсом. Все новые фильмы, игры, сериалы, книги и музыка за 2013 и 2014 годы через торрент бесплатно. Скачивайте фильмы в хорошем качестве, игры для пк, xbox, playstation без регистрации. У нас вы найдете новые Зарубежные сериалы и Русские сериалы 2013, 2014, 2015 годов. Оставайтесь с нами, качайте любимые фильмы, игры, сериалы, книги и музыку.