img image001 image001 image001 image001 image001 image001 image001 image001 image001 image001 image001 image001 image001 image001 image001

Planets Sun Sun Sun
Статистика раздачи
Автор: Снежана | Размер: 4.98 ГБ | Добавлен: 25 июл 2013
Раздают: 46    Качают: 9
Скачать торрент
Скачать торрент
Описание торрента

СообщениеДобавлено: 25 июл 2013 

Налёт / Braquo

Год выпуска: 2009
Страна: Франция
Жанр: триллер
Продолжительность: 50 минут
Перевод: профессиональный многоголосый закадровый
Оригинальная дорожка: французская
Русские субтитры: нет
Субтитры: нет

Режиссёр: Оливье Маршаль, Фредерик Шендерфер, Филипп Аим

В ролях: Жан-Юг Англад, Николя Дювошель, Джозеф Малерба, Кяроль Роше, Ален Фиглаж, Самюэль Ле Бьян, Паскаль Элсо, Жоэль Лефрансуа, Софи Брусталь

Описание: Жизнь четверых сотрудников судебной полиции Парижского региона резко меняется, когда их друг и коллега Макс, несправедливо обвиненный, совершает самоубийство. С этого момента четверка начинает вести собственное расследование, чтобы восстановить справедливость и честное имя друга — даже если при этом им приходится рисковать и обходить закон.

Доп. информация:
Перевод: zymova
Озвучка: Елена Григорьева, Руслан Иванов, Олекса Мельник и Виталий Ткаченко.
Тизер

Качество: HDRip-AVC
Формат: MP4
Видео кодек: X.264
Аудио кодек: AAC
Видео: AVC High@L3.1 x264 720x400 1500 Кбит/сек 25,000 кадров/сек 0.20 Bits/Pixel
Аудио: rus: AAC LC 2 канала 48,0 КГц 192 Кбит/сек VBR
Аудио 2: fre: AAC LC 2 канала 48,0 КГц 192 Кбит/сек VBR

General
Complete name : Braquo.s01.BDRip.x264.Rus-Fre.BaibaKo.tvBraquo.s01e03.BDRip.x264.Rus-Fre.BaibaKo.tv.mp4
Format : MPEG-4
Format profile : Base Media
Codec ID : isom
File size : 651 MiB
Duration : 48mn 8s
Overall bit rate : 1 889 Kbps
Encoded date : UTC 2012-06-24 19:05:36
Tagged date : UTC 2012-06-24 19:05:36

Video
ID : 1
Format : AVC
Format/Info : Advanced Video Codec
Format profile : High@L3.1
Format settings, CABAC : Yes
Format settings, ReFrames : 4 frames
Format settings, GOP : M=1, N=31
Codec ID : avc1
Codec ID/Info : Advanced Video Coding
Duration : 48mn 8s
Bit rate mode : Variable
Bit rate : 1 500 Kbps
Maximum bit rate : 4 946 Kbps
Width : 720 pixels
Height : 400 pixels
Display aspect ratio : 16:9
Frame rate mode : Constant
Frame rate : 25.000 fps
Color space : YUV
Chroma subsampling : 4:2:0
Bit depth : 8 bits
Scan type : Progressive
Bits/(Pixel*Frame) : 0.208
Stream size : 516 MiB (79%)
Writing library : x264 core 120 r2164 da19765
Encoding settings : cabac=1 / ref=3 / deblock=1:1:1 / analyse=0x3:0x113 / me=umh / subme=9 / psy=1 / psy_rd=1.00:0.00 / mixed_ref=1 / me_range=16 / chroma_me=1 / trellis=2 / 8x8dct=1 / cqm=0 / deadzone=21,11 / fast_pskip=1 / chroma_qp_offset=-2 / threads=8 / sliced_threads=0 / nr=0 / decimate=1 / interlaced=0 / bluray_compat=0 / constrained_intra=0 / bframes=3 / b_pyramid=2 / b_adapt=2 / b_bias=0 / direct=3 / weightb=1 / open_gop=0 / weightp=2 / keyint=200 / keyint_min=23 / scenecut=40 / intra_refresh=0 / rc=2pass / mbtree=0 / bitrate=1500 / ratetol=1.0 / qcomp=0.60 / qpmin=0 / qpmax=69 / qpstep=4 / cplxblur=20.0 / qblur=0.5 / ip_ratio=1.40 / pb_ratio=1.30 / aq=1:1.00
Encoded date : UTC 2012-05-02 21:53:57
Tagged date : UTC 2012-06-24 19:06:40

Audio #1
ID : 2
Format : AAC
Format/Info : Advanced Audio Codec
Format profile : LC
Codec ID : 40
Duration : 48mn 8s
Bit rate mode : Variable
Bit rate : 192 Kbps
Maximum bit rate : 200 Kbps
Channel(s) : 2 channels
Channel positions : Front: L R
Sampling rate : 48.0 KHz
Compression mode : Lossy
Stream size : 66.1 MiB (10%)
Language : Russian
Encoded date : UTC 2012-06-24 19:06:37
Tagged date : UTC 2012-06-24 19:06:40

Audio #2
ID : 3
Format : AAC
Format/Info : Advanced Audio Codec
Format profile : LC
Codec ID : 40
Duration : 48mn 8s
Bit rate mode : Variable
Bit rate : 192 Kbps
Maximum bit rate : 202 Kbps
Channel(s) : 2 channels
Channel positions : Front: L R
Sampling rate : 48.0 KHz
Compression mode : Lossy
Stream size : 66.1 MiB (10%)
Language : French
Encoded date : UTC 2012-06-24 19:06:39
Tagged date : UTC 2012-06-24 19:06:40




   Похожие торренты   Торрент   Размер 
В этой теме нет новых непрочитанных сообщений. Налёт / Braquo [S01] (2009) HDRip | P

39 | 5

5.01 ГБ

В этой теме нет новых непрочитанных сообщений. Налёт / Braquo [S01-02] (2009-2011) HDRip | Amedia

248 | 82

12.73 ГБ

В этой теме нет новых непрочитанных сообщений. Налёт / Braquo [S01-03] (2009-2011-2014) HDRip-AVC | BaibaKo

67 | 184

17.55 ГБ

В этой теме нет новых непрочитанных сообщений. Налёт / Braquo [S01] (2009) BDRip 720p | P

67 | 24

15.67 ГБ

В этой теме нет новых непрочитанных сообщений. Налёт / Braquo [S02] (2011) HDRip-AVC | P

32 | 4

5.08 ГБ

В этой теме нет новых непрочитанных сообщений. Налёт / Braquo [S02] (2011) HDRip | P

33 | 6

5.04 ГБ

В этой теме нет новых непрочитанных сообщений. Налёт / Braquo [S02] (2011) BDRip 720p | P

13 | 6

18 ГБ




Вы не можете начинать темы
Вы не можете отвечать на сообщения
Вы не можете редактировать свои сообщения
Вы не можете удалять свои сообщения
Вы не можете добавлять вложения

Перейти:  
Для Мосгорсуда, Роскомнадзора и рекламодателей: mosgorsud-torrent[собачка]yandex.ru
 Вход
ppkBB3cker v.2 © 2008-2014 @ PPK
[ Time : 0.048s | 15 Queries | GZIP : Off ]

cron